2 сезон

iTunes

WEBRip

1

2 сезон

iTunes

1 сезон

1 сезон

RePack

30

Новинка

ВАЖНО

ИГРА 18+

pack

RePack

MK11
pack

Легкие деньги

RePack

jed

RePack

fifa19

RePack

RDR2

RePack

NEED FOR SPEED™ PAYBACK

4 сезон

9 сезон

Бесстыжие 9 сезон

Все сериалы

все сериалы на PB.wtf

RePack

FAR CRY 5

Anonymous, доброй ночи, мы не успеваем собрать деньги на оплату серверов за февраль, помогите нам пожалуйста в это трудное время. В качестве благодарности мы отключим Вам всю рекламу на сайте (укажите свой ник в строку Ваше имя)!

×
  
Magnet ссылка

Реальные пацаны против зомби (Жанна Кадникова) [2020, Комедия, фантастика, WEBRip-AVC] [RUS] от MediaBit piratbit.pw

Реальные пацаны против зомби через торрент piratbit.pw

Раздают: 2 [ 0 KB/s ]
Размер: 749 MB | Добавлен: 1 мес. 16 д. назад | Торрент скачан:205 раз
Скачать  

17-01-2021 11:21 Реальные пацаны против зомби Скачать торрент  


Реальные пацаны против зомби
Информация о фильме:
Название: Реальные пацаны против зомби
Год выхода: 2020
Жанр: Комедия, фантастика
Режиссер: Жанна Кадникова
В ролях: Николай Наумов, Зоя Бербер, Валентина Мазунина, Станислав Тляшев, Марина Федункив, Игорь Ознобихин, Владимир Селиванов, Армен Бежанян, Мария Скорницкая, Алексей Базанов

Описание: В Пермь завезли древний коми-пермяцкий вирус, который постепенно превращает жителей в зомби. Спустя год город оцеплен военными, учёные пытаются найти вакцину. Самолёты скидывают продовольствие. Но герои, как и остальные жители Перми, приспособились к новой реальности. Они живут обычной жизнью: ходят в кафе, занимаются бизнесом, строят планы на будущее и пытаются своими силами очистить город от зомби. Всё налаживается, пока в один из обычных постапокалиптических дней не кусают Леру.



Страна: Россия
Студия: Good Story Media, ТНТ
Продолжительность: 01:27:11
Перевод: Русский



Информация о файле:
Кодек: AVC
Формат: MKV
Качество: WEBRip-AVC
Видео: MPEG-4 AVC, 720x302, 25.000 fps, 1104 kbps
Аудио RU: AAC-HE, 2 ch, 48 kHz, 96 kbps

x264 info: frame I:1033 Avg QP:15.45 size: 32537
x264 info: frame P:32915 Avg QP:18.83 size: 11141
x264 info: frame B:96839 Avg QP:21.05 size: 3315
General
Unique ID : 254697569093452796901372526006112079414 (0xBF9CF7AE9A395FC94964BB6CF05BCE36)
Complete name : D:uTorrentРипы_от_wolf1245_MediaBitРеальные пацаны против зомби.2020.745Mb.WEBRip-AVC_wolf1245_MediaBit.mkv
Format : Matroska
Format version : Version 4
File size : 749 MiB
Duration : 1 h 27 min
Overall bit rate : 1 201 kb/s
Movie name : Реальные пацаны против зомби.2020.745Mb.WEBRip-AVC_wolf1245_MediaBit
Encoded date : UTC 2021-01-17 08:24:22
Writing application : mkvmerge v52.0.0 ('Secret For The Mad') 64-bit
Writing library : libebml v1.4.1 + libmatroska v1.6.2
Video
ID : 1
Format : AVC
Format/Info : Advanced Video Codec
Format profile : High@L4.1
Format settings : CABAC / 12 Ref Frames
Format settings, CABAC : Yes
Format settings, Reference frames : 12 frames
Codec ID : V_MPEG4/ISO/AVC
Duration : 1 h 27 min
Bit rate : 1 104 kb/s
Width : 720 pixels
Height : 302 pixels
Display aspect ratio : 2.40:1
Frame rate mode : Constant
Frame rate : 25.000 FPS
Color space : YUV
Chroma subsampling : 4:2:0
Bit depth : 8 bits
Scan type : Progressive
Bits/(Pixel*Frame) : 0.203
Stream size : 688 MiB (92%)
Title : _wolf1245_MediaBit
Writing library : x264 core 157 r2958 57baac4
Encoding settings : cabac=1 / ref=12 / deblock=1:-3:-3 / analyse=0x3:0x133 / me=umh / subme=10 / psy=1 / psy_rd=1.05:0.15 / mixed_ref=1 / me_range=48 / chroma_me=1 / trellis=2 / 8x8dct=1 / cqm=0 / deadzone=21,11 / fast_pskip=0 / chroma_qp_offset=-3 / threads=10 / lookahead_threads=2 / sliced_threads=0 / nr=0 / decimate=0 / interlaced=0 / bluray_compat=0 / constrained_intra=0 / bframes=12 / b_pyramid=2 / b_adapt=2 / b_bias=0 / direct=3 / weightb=1 / open_gop=0 / weightp=2 / keyint=250 / keyint_min=25 / scenecut=40 / intra_refresh=0 / rc_lookahead=60 / rc=2pass / mbtree=0 / bitrate=1104 / ratetol=1.0 / qcomp=0.60 / qpmin=0 / qpmax=69 / qpstep=4 / cplxblur=20.0 / qblur=0.5 / vbv_maxrate=50000 / vbv_bufsize=62500 / nal_hrd=none / filler=0 / ip_ratio=1.40 / pb_ratio=1.30 / aq=1:0.80
Language : Russian
Default : Yes
Forced : No
Audio
ID : 2
Format : AAC LC SBR
Format/Info : Advanced Audio Codec Low Complexity with Spectral Band Replication
Commercial name : HE-AAC
Format settings : Implicit
Codec ID : A_AAC-2
Duration : 1 h 27 min
Bit rate : 96.0 kb/s
Channel(s) : 2 channels
Channel layout : L R
Sampling rate : 44.1 kHz
Frame rate : 21.533 FPS (2048 SPF)
Compression mode : Lossy
Stream size : 59.9 MiB (8%)
Title : RUS | Original
Language : Russian
Default : Yes
Forced : No
Релиз от: & &
piratbit.pw



Скачать Реальные пацаны против зомби через торрент https://i114.fastpic.ru/big/2021/0117/9e/c3b317385ca8e98b8832c80e25ccfa9e.png Скачать фильм Реальные пацаны против зомби через торрент бесплантно в хорошем качестве Описание: В Пермь завезли древний коми-пермяцкий вирус, который постепенно превращает жителей в зомби. Спустя год город оцеплен военными, ... 8.4 10 11
Торрент: Зарегистрирован [2021-01-17 11:21] · скачан: 205 раз
Статус: √ проверено
Размер: 749 MB
Как cкачать? Как скачать Реальные пацаны против зомби через торрент | UTorrent

28-11-2019 20:33  

Отключить всю рекламу на сайте

    Дорогой пользователь! Огромная просьба, поблагодарите релизера, оцените раздачу и оставьте свои комментарий, если Вы скачали Реальные пацаны против зомби через торрент бесплатно! Внесите свою лепту в развитие PiratBit!
    Комментировать посты могут только пользователи прошедшие не сложную регистрацию
    Показать сообщения:    

    Реальные пацаны против зомби через торрент
    Скачать бесплатно Реальные пацаны против зомби
    Реальные пацаны против зомби скачать торрент
    Реальные пацаны против зомби смотреть онлайн
    Cкачать фильм Реальные пацаны против зомби бесплатно
    Реальные пацаны против зомби скачать торрент в хорошем качестве
    Реальные пацаны против зомби смотреть онлайн бесплатно в хорошем качестве


    Вы не можете начинать темы
    Вы не можете отвечать на сообщения
    Вы не можете редактировать свои сообщения
    Вы не можете удалять свои сообщения
    Вы не можете голосовать в опросах
    Вы не можете прикреплять файлы к сообщениям
    Вы можете скачивать файлы