2 сезон

iTunes

WEBRip

1

2 сезон

iTunes

1 сезон

1 сезон

RePack

30

Новинка

ВАЖНО

ИГРА 18+

pack

RePack

MK11
pack

Легкие деньги

RePack

jed

RePack

fifa19

RePack

RDR2

RePack

NEED FOR SPEED™ PAYBACK

4 сезон

9 сезон

Бесстыжие 9 сезон

Все сериалы

все сериалы на PB.wtf

RePack

FAR CRY 5

Anonymous, доброй ночи, мы не успеваем собрать деньги на оплату серверов за февраль, помогите нам пожалуйста в это трудное время. В качестве благодарности мы отключим Вам всю рекламу на сайте (укажите свой ник в строку Ваше имя)!

×
  
Magnet ссылка

#c_училища (Анна Саянная) [2020, драма, WEBRip-AVC] [RUS] от MediaBit piratbit.pw

#c_училища через торрент piratbit.pw

Раздают: 1 [ 0 KB/s ]
Размер: 1.45 GB | Добавлен: 1 мес. 17 д. назад | Торрент скачан:202 раза
Скачать  

16-01-2021 09:49 #c_училища Скачать торрент  


#c_училища
Информация о фильме:
Название: #c_училища
Год выхода: 2019
Жанр: драма
Режиссер: Анна Саянная

В ролях: Анастасия Куимова, Василий Михайлов, Иван Макаревич, Антон Момот, Александр Числов, Елена Морозова

Описание: Юная студентка Танька из рабочего района влюбляется в преподавателя – интеллигентного Сережу, мечтающего уехать в Москву от серости провинциального города. Сережа поздно понимает, что за девушка перед ним, и что его мечтам уже не суждено сбыться.



Страна: Россия
Примечание: 18+
Продолжительность: 01:35:00
Перевод: Русский



Информация о файле:
Кодек: AVC
Формат: MKV
Качество: WEBRip-AVC
Видео: MPEG-4 AVC, 1024x576, 24.000 fps, 1996 kbps
Аудио RU: AC3, 2 ch, 48 kHz, 192 kbps

x264 info: frame I:685 Avg QP:14.48 size: 55190
x264 info: frame P:39078 Avg QP:17.94 size: 20349
x264 info: frame B:96934 Avg QP:19.81 size: 6045
x264 info: consecutive B-frames: 5.6% 5.5% 17.3% 27.3% 25.2% 17.4% 1.3% 0.1% 0.0% 0.0% 0.0% 0.0% 0.1%
General
Unique ID : 309065948498956689825204501283540941129 (0xE883EFBE7E797FB9F80EE487A375B949)
Complete name : D:uTorrentРипы_от_wolf1245_MediaBit#c_училища.2020.WEBRip-AVC_wolf1245_MediaBit.mkv
Format : Matroska
Format version : Version 4
File size : 1.45 GiB
Duration : 1 h 34 min
Overall bit rate : 2 187 kb/s
Movie name : #c_училища.2020.WEBRip-AVC_wolf1245_MediaBit
Encoded date : UTC 2021-01-16 09:34:28
Writing application : mkvmerge v52.0.0 ('Secret For The Mad') 64-bit
Writing library : libebml v1.4.1 + libmatroska v1.6.2
Video
ID : 1
Format : AVC
Format/Info : Advanced Video Codec
Format profile : High@L4.1
Format settings : CABAC / 12 Ref Frames
Format settings, CABAC : Yes
Format settings, Reference frames : 12 frames
Codec ID : V_MPEG4/ISO/AVC
Duration : 1 h 34 min
Bit rate : 1 996 kb/s
Width : 1 024 pixels
Height : 576 pixels
Display aspect ratio : 16:9
Frame rate mode : Constant
Frame rate : 24.000 FPS
Color space : YUV
Chroma subsampling : 4:2:0
Bit depth : 8 bits
Scan type : Progressive
Bits/(Pixel*Frame) : 0.141
Stream size : 1.32 GiB (91%)
Title : wolf1245_MediaBit
Writing library : x264 core 157 r2958 57baac4
Encoding settings : cabac=1 / ref=12 / deblock=1:-3:-3 / analyse=0x3:0x133 / me=umh / subme=11 / psy=1 / psy_rd=1.05:0.05 / mixed_ref=1 / me_range=48 / chroma_me=1 / trellis=2 / 8x8dct=1 / cqm=0 / deadzone=21,11 / fast_pskip=0 / chroma_qp_offset=-3 / threads=10 / lookahead_threads=2 / sliced_threads=0 / nr=0 / decimate=0 / interlaced=0 / bluray_compat=0 / constrained_intra=0 / bframes=12 / b_pyramid=2 / b_adapt=2 / b_bias=0 / direct=3 / weightb=1 / open_gop=0 / weightp=2 / keyint=240 / keyint_min=24 / scenecut=40 / intra_refresh=0 / rc_lookahead=60 / rc=2pass / mbtree=0 / bitrate=1996 / ratetol=1.0 / qcomp=0.60 / qpmin=0 / qpmax=69 / qpstep=4 / cplxblur=20.0 / qblur=0.5 / vbv_maxrate=50000 / vbv_bufsize=62500 / nal_hrd=none / filler=0 / ip_ratio=1.40 / pb_ratio=1.30 / aq=1:0.80
Language : Russian
Default : Yes
Forced : No
Audio
ID : 2
Format : AC-3
Format/Info : Audio Coding 3
Commercial name : Dolby Digital
Codec ID : A_AC3
Duration : 1 h 34 min
Bit rate mode : Constant
Bit rate : 192 kb/s
Channel(s) : 2 channels
Channel layout : L R
Sampling rate : 44.1 kHz
Frame rate : 28.711 FPS (1536 SPF)
Compression mode : Lossy
Stream size : 130 MiB (9%)
Title : RUS
Language : Russian
Service kind : Complete Main
Default : Yes
Forced : No
Релиз от: & &
piratbit.pw



Скачать #c_училища через торрент https://d.radikal.ru/d05/2101/04/57f56929eeb4.png Скачать фильм #c_училища через торрент бесплантно в хорошем качестве Описание: Юная студентка Танька из рабочего района влюбляется в преподавателя – интеллигентного Сережу, мечтающего уехать в Москву от ... 8.4 10 7
Торрент: Зарегистрирован [2021-01-16 09:49] · скачан: 202 раз
Статус: T временная
Размер: 1.45 GB
Как cкачать? Как скачать #c_училища через торрент | UTorrent

28-11-2019 20:33  

Отключить всю рекламу на сайте

18-01-2021 21:12 #c_училища Скачать торрент  

иван макаревич ... буэээээ piratbit.pw



    Дорогой пользователь! Огромная просьба, поблагодарите релизера, оцените раздачу и оставьте свои комментарий, если Вы скачали #c_училища через торрент бесплатно! Внесите свою лепту в развитие PiratBit!
    Комментировать посты могут только пользователи прошедшие не сложную регистрацию
    Показать сообщения:    

    #c_училища через торрент
    Скачать бесплатно #c_училища
    #c_училища скачать торрент
    #c_училища смотреть онлайн
    Cкачать фильм #c_училища бесплатно
    #c_училища скачать торрент в хорошем качестве
    #c_училища смотреть онлайн бесплатно в хорошем качестве


    Вы не можете начинать темы
    Вы не можете отвечать на сообщения
    Вы не можете редактировать свои сообщения
    Вы не можете удалять свои сообщения
    Вы не можете голосовать в опросах
    Вы не можете прикреплять файлы к сообщениям
    Вы можете скачивать файлы