2 сезон

iTunes

WEBRip

1

2 сезон

iTunes

1 сезон

1 сезон

RePack

30

Новинка

ВАЖНО

ИГРА 18+

pack

RePack

MK11
pack

Легкие деньги

RePack

jed

RePack

fifa19

RePack

RDR2

RePack

NEED FOR SPEED™ PAYBACK

4 сезон

9 сезон

Бесстыжие 9 сезон

Все сериалы

все сериалы на PB.wtf

RePack

FAR CRY 5

Anonymous, доброе утро, мы не успеваем собрать деньги на оплату серверов за февраль, помогите нам пожалуйста в это трудное время. В качестве благодарности мы отключим Вам всю рекламу на сайте (укажите свой ник в строку Ваше имя)!

×
  
Magnet ссылка

Вратарь Галактики (Джаник Файзиев) [2020, Приключения, фантастика, HDRip-AVC] [RUS] [Лицензия] от MediaBit piratbit.pw

Вратарь Галактики через торрент piratbit.pw

Раздают: 2 [ 0 KB/s ]
Размер: 1.45 GB | Добавлен: 1 мес. 18 д. назад | Торрент скачан:22 раза
Скачать  

08-01-2021 21:46 Вратарь Галактики Скачать торрент  


Вратарь Галактики
Информация о фильме:
Название: Вратарь Галактики
Год выхода: 2020
Жанр: Приключения, фантастика
Режиссер: Джаник Файзиев

В ролях: Евгений Романцов, Виктория Агалакова, Евгений Миронов, Иван Иванович, Елизавета Тайченачева, Мария Лисовая, Елена Яковлева, Михаил Ефремов, Дмитрий Назаров, Светлана Иванова, Вольфганг Черни, Юлия Винс, Христина Блохина, Валерия Букина, Станислав Рогачёв, Михаил Стенин, Сослан Фидаров, Полина Стремоусова, Руслан Щедрин, Александра Велескевич, Арсений Краковский, Евгений Косырев, Людмила Гошко, Лия Мао, Гэ Ян, Светлана Пермякова, Евгений Куршинский, Ксана Радченко, Александра Черкасова, Марта Тимофеева, Владимир Поглазов, Дмитрий Ярцев, Иван Федотов, Иван Егоров, Юрий Сазонов, Павел Дорофеев, Алексей Павлов, Елена Котихина, Геннадий Краковский

Описание: 2071 год. Галактические войны разрушили Луну и изменили климат на Земле. Москва – в тропических лесах, а Нью-Йорк покрылся льдом. Над Москвой возвышается огромный инопланетный корабль – это стадион, на котором проходят зрелищные межгалактические соревнования по космоболу — игре, объединившей в себе спорт и гладиаторские бои. За матчами следит вся галактика. Играть в космобол могут только атлеты. Именно так называют тех, кто наделен необыкновенными способностями и может ими управлять. Космобол обожают все, кроме Антона, самого обычного парня, который всего лишь мечтает найти работу, чтобы помочь семье. Но однажды у него обнаруживают сверхспособности, и принимают в сборную. Теперь он игрок в космобол. Антон ещё не подозревает о том, какая роль уготована ему судьбой в этом матче, и что финальная игра станет сражением за Землю.



Страна: Россия
Студия: Телеканал «РОССИЯ 1», Бонанза Студио, Кинокомпания CTB
Продолжительность: 01:53:43
Перевод: Русский - Лицензия



Информация о файле:
Кодек: AVC
Формат: MKV
Качество: HDRip-AVC
Видео: MPEG-4 AVC, 1024x428, 25.000 fps, 1378 kbps
Аудио RU: AC3, 6 ch, 48 kHz, 448 kbps
Навигация по главам: Да

General
Unique ID : 335068624468446374643630515525229536289 (0xFC13DEA68CA5DE82849783C2DE98E421)
Complete name : D:uTorrentРипы_от_wolf1245_MediaBitVratar.Galaktiki.2020.Lic.1.45Gb.HDRip-AVC_wolf1245_MediaBit.mkv
Format : Matroska
Format version : Version 4
File size : 1.45 GiB
Duration : 1 h 53 min
Overall bit rate : 1 827 kb/s
Movie name : Vratar.Galaktiki.2020.Lic.1.45Gb.HDRip-AVC_wolf1245_MediaBit
Encoded date : UTC 2021-01-08 21:35:14
Writing application : mkvmerge v52.0.0 ('Secret For The Mad') 64-bit
Writing library : libebml v1.4.1 + libmatroska v1.6.2
Video
ID : 1
Format : AVC
Format/Info : Advanced Video Codec
Format profile : High@L4.1
Format settings : CABAC / 12 Ref Frames
Format settings, CABAC : Yes
Format settings, Reference frames : 12 frames
Codec ID : V_MPEG4/ISO/AVC
Duration : 1 h 53 min
Bit rate : 1 378 kb/s
Width : 1 024 pixels
Height : 428 pixels
Display aspect ratio : 2.40:1
Frame rate mode : Constant
Frame rate : 25.000 FPS
Color space : YUV
Chroma subsampling : 4:2:0
Bit depth : 8 bits
Scan type : Progressive
Bits/(Pixel*Frame) : 0.126
Stream size : 1.09 GiB (75%)
Title : _wolf1245_MediaBit
Writing library : x264 core 157 r2958 57baac4
Encoding settings : cabac=1 / ref=12 / deblock=1:-3:-2 / analyse=0x3:0x133 / me=umh / subme=11 / psy=1 / psy_rd=1.00:0.00 / mixed_ref=1 / me_range=48 / chroma_me=1 / trellis=2 / 8x8dct=1 / cqm=0 / deadzone=21,11 / fast_pskip=0 / chroma_qp_offset=-2 / threads=10 / lookahead_threads=2 / sliced_threads=0 / nr=0 / decimate=0 / interlaced=0 / bluray_compat=0 / constrained_intra=0 / bframes=12 / b_pyramid=2 / b_adapt=2 / b_bias=0 / direct=3 / weightb=1 / open_gop=0 / weightp=2 / keyint=250 / keyint_min=25 / scenecut=40 / intra_refresh=0 / rc_lookahead=100 / rc=2pass / mbtree=0 / bitrate=1378 / ratetol=1.0 / qcomp=0.60 / qpmin=0 / qpmax=69 / qpstep=4 / cplxblur=20.0 / qblur=0.5 / vbv_maxrate=50000 / vbv_bufsize=62500 / nal_hrd=none / filler=0 / ip_ratio=1.40 / pb_ratio=1.30 / aq=2:0.90
Language : Russian
Default : Yes
Forced : No
Audio
ID : 2
Format : AC-3
Format/Info : Audio Coding 3
Commercial name : Dolby Digital
Codec ID : A_AC3
Duration : 1 h 53 min
Bit rate mode : Constant
Bit rate : 448 kb/s
Channel(s) : 6 channels
Channel layout : L R C LFE Ls Rs
Sampling rate : 48.0 kHz
Frame rate : 31.250 FPS (1536 SPF)
Compression mode : Lossy
Stream size : 364 MiB (25%)
Title : Original | RUS | Lic
Service kind : Complete Main
Default : Yes
Forced : No
Menu
00:00:00.000 : :00:00:00.000
00:18:43.480 : :00:18:43.480
00:30:49.960 : :00:30:49.960
00:44:49.440 : :00:44:49.440
00:56:38.240 : :00:56:38.240
01:21:56.760 : :01:21:56.760
01:34:25.840 : :01:34:25.840
01:50:09.800 : :01:50:09.800
Релиз от: & &
piratbit.pw



Скачать Вратарь Галактики через торрент https://c.radikal.ru/c12/2101/af/88de2aedaea0.png Скачать фильм Вратарь Галактики через торрент бесплантно в хорошем качестве Описание: 2071 год. Галактические войны разрушили Луну и изменили климат на Земле. Москва – в тропических лесах, а Нью-Йорк покрылся ... 3.8 10 4
Торрент: Зарегистрирован [2021-01-08 21:46] · скачан: 22 раз
Статус: √ проверено
Размер: 1.45 GB
Как cкачать? Как скачать Вратарь Галактики через торрент | UTorrent

28-11-2019 20:33  

Отключить всю рекламу на сайте

    Дорогой пользователь! Огромная просьба, поблагодарите релизера, оцените раздачу и оставьте свои комментарий, если Вы скачали Вратарь Галактики через торрент бесплатно! Внесите свою лепту в развитие PiratBit!
    Комментировать посты могут только пользователи прошедшие не сложную регистрацию
    Показать сообщения:    

    Вратарь Галактики через торрент
    Скачать бесплатно Вратарь Галактики
    Вратарь Галактики скачать торрент
    Вратарь Галактики смотреть онлайн
    Cкачать фильм Вратарь Галактики бесплатно
    Вратарь Галактики скачать торрент в хорошем качестве
    Вратарь Галактики смотреть онлайн бесплатно в хорошем качестве


    Вы не можете начинать темы
    Вы не можете отвечать на сообщения
    Вы не можете редактировать свои сообщения
    Вы не можете удалять свои сообщения
    Вы не можете голосовать в опросах
    Вы не можете прикреплять файлы к сообщениям
    Вы можете скачивать файлы