2 сезон

iTunes

WEBRip

1

2 сезон

iTunes

1 сезон

1 сезон

RePack

30

Ultimate

ВАЖНО

ИГРА 18+

pack

RePack

MK11
pack

Легкие деньги

RePack

jed

RePack

fifa19

RePack

RDR2

RePack

NEED FOR SPEED™ PAYBACK

4 сезон

9 сезон

Бесстыжие 9 сезон

Все сериалы

все сериалы на PB.wtf

RePack

FAR CRY 5

Anonymous, доброй ночи, мы не успеваем собрать деньги на оплату серверов за февраль, помогите нам пожалуйста в это трудное время. В качестве благодарности мы отключим Вам всю рекламу на сайте (укажите свой ник в строку Ваше имя)!

×
  
Magnet ссылка

Неадекватные люди 2 (Роман Каримов) [2020, Драма, комедия, WEB-DLRip-AVC] [iTunes] piratbit.pw

Неадекватные люди 2 через торрент piratbit.pw

Раздают: 2 [ 0 KB/s ]
Размер: 2.55 GB | Добавлен: 1 мес. 28 д. назад | Торрент скачан:119 раз
Скачать  

05-01-2021 07:28 Неадекватные люди 2 Скачать торрент  

Неадекватные люди 2
Год выпуска: 2020
Страна: Россия
Выпущено: MEGOGO Studios
Жанр: Драма, комедия
Продолжительность: 02:15:54
Перевод: Не требуется | iTunes
Субтитры: отсутствуют

Режиссер: Роман Каримов

rating

В ролях: Ингрид Олеринская, Илья Любимов, Евгений Цыганов, Мария Горячева, Никита Санаев, Роман Хан, Артём Цуканов, Андрей Бебуришвили, Алексей Гоман, Александра Булычёва и др.

Описание: Кристина живет с Виталием тихой семейной жизнью, но ее саркастический взгляд на мир не совпадает с идеалами Виталия. Пока она занимается домашними делами, он все больше времени уделяет работе, и Кристина начинает подозревать, что это как-то связано с появлением в офисе его молодой помощницы Сони.

Качество: WEB-DLRip-AVC
Формат: MKV

Видео: 1024x576 (16:9), 24 fps, MPEG-4 AVC, 2300 Кbps avg, 0.162 bit/pixel
Аудио: 48 kHz, AC3 Dolby Digital, 3/2 (L,C,R,l,r) + LFE ch, ~384 kbps
скриншот  скриншот  скриншот  скриншот  

x264 [info]: frame I:1375 Avg QP:12.76 size: 74398
x264 [info]: frame P:49571 Avg QP:15.54 size: 25010
x264 [info]: frame B:144747 Avg QP:16.47 size: 6903
x264 [info]: consecutive B-frames: 1.8% 3.2% 5.5% 68.8% 7.5% 10.4% 1.0% 0.9% 0.2% 0.3% 0.4%
********************************

Общее
Уникальный идентификатор : 254065850343968677632645128396473873024 (0xBF234D8B0269DE250EC023FCE657B280)
Полное имя : Neadekvatnie.Ludi.2.2020.WEB-DLRip.2.55Gb.x264.MegaPeer.mkv
Формат : Matroska
Версия формата : Version 4
Размер файла : 2,55 Гбайт
Продолжительность : 2 ч. 15 м.
Общий поток : 2 683 Кбит/сек
Название фильма : Неадекватные люди 2 (2020) от MegaPeer
Дата кодирования : UTC 2021-01-05 07:11:41
Программа кодирования : mkvmerge v47.0.0 ('Black Flag') 64-bit
Библиотека кодирования : libebml v1.3.10 + libmatroska v1.5.2
Обложка : Yes
Attachments : cover.jpg

Видео
Идентификатор : 1
Формат : AVC
Формат/Информация : Advanced Video Codec
Профиль формата : High@L4.1
Настройки формата : CABAC / 11 Ref Frames
Параметр CABAC формата : Да
Параметр RefFrames формата : 11 кадров
Идентификатор кодека : V_MPEG4/ISO/AVC
Продолжительность : 2 ч. 15 м.
Битрейт : 2 300 Кбит/сек
Ширина : 1 024 пикселя
Высота : 576 пикселей
Соотношение сторон : 16:9
Режим частоты кадров : Постоянный
Частота кадров : 24,000 кадра/сек
Цветовое пространство : YUV
Субдискретизация насыщенности : 4:2:0
Битовая глубина : 8 бит
Тип развёртки : Прогрессивная
Бит/(Пиксели*Кадры) : 0.162
Размер потока : 2,18 Гбайт (86%)
Заголовок : stillet@MegaPeer
Библиотека кодирования : x264 core 161 r3018 db0d417
Настройки программы : cabac=1 / ref=11 / deblock=1:-3:-3 / analyse=0x3:0x113 / me=umh / subme=11 / psy=1 / psy_rd=1.00:0.00 / mixed_ref=1 / me_range=48 / chroma_me=1 / trellis=2 / 8x8dct=1 / cqm=0 / deadzone=21,11 / fast_pskip=0 / chroma_qp_offset=-2 / threads=18 / lookahead_threads=4 / sliced_threads=0 / nr=0 / decimate=0 / interlaced=0 / bluray_compat=0 / constrained_intra=0 / bframes=10 / b_pyramid=2 / b_adapt=2 / b_bias=0 / direct=3 / weightb=1 / open_gop=0 / weightp=2 / keyint=250 / keyint_min=25 / scenecut=40 / intra_refresh=0 / rc_lookahead=40 / rc=2pass / mbtree=0 / bitrate=2300 / ratetol=1.0 / qcomp=0.60 / qpmin=0 / qpmax=69 / qpstep=4 / cplxblur=20.0 / qblur=0.5 / vbv_maxrate=50000 / vbv_bufsize=62500 / nal_hrd=none / filler=0 / ip_ratio=1.40 / pb_ratio=1.30 / aq=1:1.10
Язык : Russian
Default : Да
Forced : Нет

Аудио
Идентификатор : 2
Формат : AC-3
Формат/Информация : Audio Coding 3
Коммерческое название : Dolby Digital
Идентификатор кодека : A_AC3
Продолжительность : 2 ч. 15 м.
Вид битрейта : Постоянный
Битрейт : 384 Кбит/сек
Каналы : 6 каналов
Channel layout : L R C LFE Ls Rs
Частота : 48,0 КГц
Частота кадров : 31,250 кадров/сек (1536 SPF)
Метод сжатия : С потерями
Размер потока : 373 Мбайт (14%)
Заголовок : iTunes
Язык : Russian
Service kind : Complete Main
Default : Да
Forced : Нет

Меню
00:00:00.000 : en:Глава 1
00:09:50.458 : en:Глава 2
00:19:15.166 : en:Глава 3
00:27:52.082 : en:Глава 4
00:36:16.790 : en:Глава 5
00:44:53.956 : en:Глава 6
00:53:29.789 : en:Глава 7
01:02:05.747 : en:Глава 8
01:10:10.372 : en:Глава 9
01:18:20.872 : en:Глава 10
01:27:45.997 : en:Глава 11
01:36:35.705 : en:Глава 12
01:45:59.580 : en:Глава 13
01:54:42.330 : en:Глава 14
02:03:37.621 : en:Глава 15

piratbit.pw



Скачать Неадекватные люди 2 через торрент https://i114.fastpic.ru/big/2021/0104/cc/bce758ea7e172d1fea539b86c440f9cc.jpg Скачать фильм Неадекватные люди 2 через торрент бесплантно в хорошем качестве Описание: Кристина живет с Виталием тихой семейной жизнью, но ее саркастический взгляд на мир не совпадает с идеалами Виталия. Пока она ... 10 10 5
Торрент: Зарегистрирован [2021-01-05 07:28] · скачан: 119 раз
Статус: √ проверено
Размер: 2.55 GB
Как cкачать? Как скачать Неадекватные люди 2 через торрент | UTorrent

% Раздел Тема Автор DL S | L
Наши новые фильмы 2020 - 2021 [ 1.46 GB ] Неадекватные люди 2 [2020 WEB-DLRip] bober100 Скачать
5 | 0
Наши новые фильмы 2020 - 2021 [ 818 MB ] Неадекватные люди 2 [2020 WEB-DLRip Русский""] coc900 Скачать
2 | 0
Наши фильмы (HD, WEB-DL 720p, 1080p) [ 4.23 GB ] Неадекватные люди 2 [2020 WEB-DL 720p] bober100 Скачать
9 | 0
Наши фильмы (HD, WEB-DL 720p, 1080p) [ 5.32 GB ] Неадекватные люди 2 [2020 WEB-DL 1080p] bober100 Скачать
8 | 0
Наши новые фильмы 2020 - 2021 [ 2.18 GB ] Неадекватные люди 2 [2020 WEB-DLRip] bober100 Скачать
7 | 0

28-11-2019 20:33  

Отключить всю рекламу на сайте

08-01-2021 13:34 Неадекватные люди 2 Скачать торрент  

Звука нет.
Проигрыватель KMPlayer 64X, а через Media Player Classic вроде есть - чудеса.piratbit.pw



    Дорогой пользователь! Огромная просьба, поблагодарите релизера, оцените раздачу и оставьте свои комментарий, если Вы скачали Неадекватные люди 2 через торрент бесплатно! Внесите свою лепту в развитие PiratBit!
    Комментировать посты могут только пользователи прошедшие не сложную регистрацию
    Показать сообщения:    

    Неадекватные люди 2 через торрент
    Скачать бесплатно Неадекватные люди 2
    Неадекватные люди 2 скачать торрент
    Неадекватные люди 2 смотреть онлайн
    Cкачать фильм Неадекватные люди 2 бесплатно
    Неадекватные люди 2 скачать торрент в хорошем качестве
    Неадекватные люди 2 смотреть онлайн бесплатно в хорошем качестве


    Вы не можете начинать темы
    Вы не можете отвечать на сообщения
    Вы не можете редактировать свои сообщения
    Вы не можете удалять свои сообщения
    Вы не можете голосовать в опросах
    Вы не можете прикреплять файлы к сообщениям
    Вы можете скачивать файлы