1 сезон

1 сезон

iTunes

1

КиноПоиск HD

Кинопоиск HD

iTunes

13

1 сезон

RePack

30

Ultimate

ВАЖНО

ИГРА 18+

pack

RePack

MK11
pack

Легкие деньги

RePack

jed

RePack

fifa19

RePack

RDR2

RePack

NEED FOR SPEED™ PAYBACK

4 сезон

9 сезон

Бесстыжие 9 сезон

Все сериалы

все сериалы на PB.wtf

RePack

FAR CRY 5
  
Magnet ссылка

Голяк / Без гроша / Без денег / Brassic / Сезон: 1 / Серии: 1-6 из 6 (Джон Райт, Дэниэл О’Хара, Сауль Метцштайн) [2019, комедия, WEB-DL 1080p] AVO [Д."Гоблин" Пучков] piratbit.pw

Голяк через торрент piratbit.pw

Раздают: 3 [ 0 KB/s ]
Размер: 14.24 GB | Добавлен: 3 мес. 6 д. назад | Торрент скачан:58 раз
Скачать  

03-01-2021 06:27 Голяк Скачать торрент  

Голяк | Без гроша | Без денег | Brassic Год выпуска: 2019
Страна: Великобритания
Жанр: Комедия
Продолжительность: ~ 00:43:00
Перевод: Авторский (одноголосый) | Дмитрий "Гоблин" Пучков
Субтитры: отсутствуют

Режиссёр: Джон Райт, Дэниэл О’Хара, Сауль Метцштайн

В ролях: Джозеф Гилган, Дэмиен Молони, Мишель Кигэн, Том Хэнсон, Аарон Хеффернан, Парт Такерар, Райан Сэмпсон, Доминик Уэст, Стив Эветс

Описание: Криминальная комедия про британскую глубинку. Сериал в духе Гая Ричи, придуманный сценаристом «Бесстыжих».

В центре сюжета оказывается компания приятелей, среди которых особо выделяются страдающий биполярным расстройством Винни и его лучший друг Дилан. Будучи неразлучными с детства, парни органично дополняли друг друга и находили способы разнообразить пресное существование в угрюмом Ланкашире, но их вступление во взрослую жизнь омрачено серией неприятностей. Совместными усилиями они стараются справляться с возникающими проблемами, но вскоре их длительная дружба оказывается под угрозой из-за желания девушки Дилана переехать вместе с ним в другой город...

rating

Качество: WEB-DL 1080p
Формат: TS

Видео: 1920x1080 at 25.000 fps, MPEG-4 AVC, ~7500 kbps avg
Аудио#1 Russian: 48 kHz, AC3, 2/0 (L,R) ch, ~192 kbps avg |Авторский, Д.Пучков|
Аудио#2 English: 48 kHz, E-AC3, 2/0 (L,R) ch, ~224 kbps avg
скриншот  скриншот  скриншот  скриншот  

Общее
Уникальный идентификатор : 206280547062559180144665283047814179497 (0x9B3030315D355B31FCAEFA906BCDAAA9)
Полное имя : C:\Brassic.1080p\S01\Brassic.S01E01.mkv
Формат : Matroska
Версия формата : Version 4
Размер файла : 2,38 Гбайт
Продолжительность : 42 м. 44 с.
Режим общего битрейта : Постоянный
Общий поток : 7963 Кбит/сек
Дата кодирования : UTC 2021-01-03 09:13:15
Программа кодирования : mkvmerge v51.0.0 ('I Wish') 64-bit
Библиотека кодирования : libebml v1.4.0 + libmatroska v1.6.2

Видео
Идентификатор : 1
Формат : AVC
Формат/Информация : Advanced Video Codec
Профиль формата : High@L4
Настройки формата : CABAC / 4 Ref Frames
Параметр CABAC формата : Да
Параметр RefFrames формата : 4 кадра
Идентификатор кодека : V_MPEG4/ISO/AVC
Продолжительность : 42 м. 44 с.
Вид битрейта : Постоянный
Битрейт : 7389 Кбит/сек
Номинальный битрейт : 10000 Кбит/сек
Ширина : 1920 пикселей
Высота : 1080 пикселей
Соотношение сторон : 16:9
Режим частоты кадров : Постоянный
Частота кадров : 25,000 кадров/сек
Цветовое пространство : YUV
Субдискретизация насыщенности : 4:2:0
Битовая глубина : 8 бит
Тип развёртки : Прогрессивная
Бит/(Пиксели*Кадры) : 0.143
Размер потока : 2,21 Гбайт (93%)
Язык : English
Default : Да
Forced : Нет
Цветовой диапазон : Limited
Основные цвета : BT.709
Характеристики трансфера : BT.709
Коэффициенты матрицы : BT.709

Аудио #1
Идентификатор : 2
Формат : AC-3
Формат/Информация : Audio Coding 3
Коммерческое название : Dolby Digital
Идентификатор кодека : A_AC3
Продолжительность : 42 м. 44 с.
Вид битрейта : Постоянный
Битрейт : 192 Кбит/сек
Каналы : 2 канала
ChannelLayout : L R
Частота : 48,0 КГц
Частота кадров : 31,250 кадров/сек (1536 SPF)
Битовая глубина : 16 бит
Метод сжатия : С потерями
Размер потока : 58,7 Мбайт (2%)
Язык : Russian
ServiceKind/String : Complete Main
Default : Да
Forced : Нет

Аудио #2
Идентификатор : 3
Формат : E-AC-3
Формат/Информация : Enhanced AC-3
Коммерческое название : Dolby Digital Plus
Идентификатор кодека : A_EAC3
Продолжительность : 42 м. 44 с.
Вид битрейта : Постоянный
Битрейт : 224 Кбит/сек
Каналы : 2 канала
ChannelLayout : L R
Частота : 48,0 КГц
Частота кадров : 31,250 кадров/сек (1536 SPF)
Метод сжатия : С потерями
Размер потока : 68,5 Мбайт (3%)
Язык : English
ServiceKind/String : Complete Main
Default : Нет
Forced : Нет

Внимание! Раздача ведётся путём добавления новых серий; при каждом добавлении создаётся новый торрент.
Чтобы начать докачку новой серии, пользователям необходимо сделать следующее:
1. Остановить скачивание;
2. Удалить старый торрент у себя из клиента (старые серии удалять не надо);
3. Скачать новый торрент и запустить его у себя в клиенте вместо старого, при этом указать клиенту путь в старую папку куда и должно происходить скачивание новых серий. Ваш клиент при этом должен произвести хеширование (проверку) старой папки и будет докачивать только те серии, которых у вас ещё нет. Старые серии при этом не удаляются, а продолжают раздаваться! Eсли вы уже удалили старые серии, то предотвратить повторную закачку старых серий можно, отжав галочку в соответствующих местах при запуске нового торрента.

piratbit.pw



Скачать Голяк через торрент https://b.radikal.ru/b13/2006/ef/e2e44d025f92.png Скачать фильм Голяк через торрент бесплантно в хорошем качестве Описание: Криминальная комедия про британскую глубинку. Сериал в духе Гая Ричи, придуманный сценаристом «Бесстыжих».В центре сюжета ... 9.9 10 7
Торрент: Зарегистрирован [2021-01-16 16:39] · скачан: 58 раз
Статус: √ проверено
Размер: 14.24 GB
Как cкачать? Как скачать Голяк через торрент | UTorrent

% Раздел Тема Автор DL S | L
Зарубежные сериалы [ 3.68 GB ] Голяк / Без гроша / Без денег / Brassic / Сезон: 2 / Серии: 1-6 из 6 [2020 WEB-DLRip] [DVO] killermax2013 Скачать
4 | 1
Зарубежные сериалы [ 9.75 GB ] Голяк / Без гроша / Без денег / Brassic / Сезон: 2 / Серии: 1-6 из 6 [2020 WEB-DL 1080p] DVO [Кубик в Кубе] bober100 Скачать
6 | 2
Зарубежные сериалы [ 10.5 GB ] Без гроша / Без денег / Голяк / Brassic / Сезон: 1 / Серии: 1-6 из 6 [2019 траги HDTVRip 1080p] MVO [Ozz] bober100 Скачать
1 | 0

28-11-2019 20:33  

Отключить всю рекламу на сайте

    Дорогой пользователь! Огромная просьба, поблагодарите релизера, оцените раздачу и оставьте свои комментарий, если Вы скачали Голяк через торрент бесплатно! Внесите свою лепту в развитие PiratBit!
    Комментировать посты могут только пользователи прошедшие не сложную регистрацию
    Показать сообщения:    

    Голяк через торрент
    Скачать бесплатно Голяк
    Голяк скачать торрент
    Голяк смотреть онлайн
    Cкачать фильм Голяк бесплатно
    Голяк скачать торрент в хорошем качестве
    Голяк смотреть онлайн бесплатно в хорошем качестве


    Вы не можете начинать темы
    Вы не можете отвечать на сообщения
    Вы не можете редактировать свои сообщения
    Вы не можете удалять свои сообщения
    Вы не можете голосовать в опросах
    Вы не можете прикреплять файлы к сообщениям
    Вы можете скачивать файлы