2 сезон

iTunes

WEBRip

1

2 сезон

iTunes

1 сезон

1 сезон

RePack

30

Новинка

ВАЖНО

ИГРА 18+

pack

RePack

MK11
pack

Легкие деньги

RePack

jed

RePack

fifa19

RePack

RDR2

RePack

NEED FOR SPEED™ PAYBACK

4 сезон

9 сезон

Бесстыжие 9 сезон

Все сериалы

все сериалы на PB.wtf

RePack

FAR CRY 5

Anonymous, доброй ночи, мы не успеваем собрать деньги на оплату серверов за февраль, помогите нам пожалуйста в это трудное время. В качестве благодарности мы отключим Вам всю рекламу на сайте (укажите свой ник в строку Ваше имя)!

×
  
Magnet ссылка

Мажор. Фильм (Максим Полинский, Николай Булыгин) [2021, Боевик, комедия, WEBRip-AVC] [RUS] piratbit.pw

Мажор. Фильм через торрент piratbit.pw

Раздают: 1 [ 0 KB/s ]
Размер: 745 MB | Добавлен: 1 мес. 30 д. назад | Торрент скачан:121 раз
Скачать  

02-01-2021 09:01 Мажор. Фильм Скачать торрент  


Мажор. Фильм
Информация о фильме:
Название: Мажор. Фильм
Год выхода: 2021
Жанр: Боевик, комедия
Режиссер: Максим Полинский, Николай Булыгин

В ролях: Павел Прилучный, Евгений Стычкин, Агния Дитковските, Дарина Эрвин, Даниил Воробьев, Владимир Селезнев, Дмитрий Шевченко, Александр Обласов, Игорь Жижикин, Павел Чинарёв

Описание: Мажор виртуозно сбегает из тюрьмы и начинает новую жизнь. Новую сладкую жизнь! Соколовский вливается в светскую тусовку, где все сидят на новом синтетическом наркотике, и его снова окружают тачки, виллы и топ-модели. Друзья, враги и ФСБ идут по следу Мажора, пытаясь понять, какую игру он затеял и на чьей он стороне. Игорь же пытается понять, кто он сам — предатель, святой или всё тот же… Мажор?



Страна: Россия
Студия: Продюсерская компания «Среда»
Продолжительность: 01:38:05
Перевод: Не требуется



Информация о файле:
Кодек: AVC
Формат: MKV
Качество: WEB-DLRip-AVC
Видео: MPEG-4 AVC, 720x302, 24.000 fps, 966 kbps
Аудио RU: AAC-HE, 2 ch, 48 kHz, 96 kbps
Субтитры: русские (форс. вшитые, полные)

x264 info: frame I:1603 Avg QP:15.08 size: 36888
x264 info: frame P:36802 Avg QP:18.52 size: 10651
x264 info: frame B:102851 Avg QP:20.32 size: 2513
x264 info: consecutive B-frames: 4.3% 6.1% 8.9% 39.0% 7.1% 32.7% 1.0% 0.7% 0.1% 0.1% 0.0% 0.0% 0.1%
General
Unique ID : 150245755772809717026425007527112529978 (0x710847AE790D55EE10117FF1C7B0D83A)
Complete name : D:uTorrentРипы_от_wolf1245_MediaBitMazhor.Film.2021.WEBRip-AVC.745Mb.wolf1245_MediaBit.mkv
Format : Matroska
Format version : Version 4
File size : 745 MiB
Duration : 1 h 38 min
Overall bit rate : 1 062 kb/s
Movie name : Mazhor.Film.2021.WEBRip-AVC.745Mb.wolf1245_MediaBit
Encoded date : UTC 2021-01-02 08:50:37
Writing application : mkvmerge v51.0.0 ('I Wish') 64-bit
Writing library : libebml v1.4.0 + libmatroska v1.6.2
Video
ID : 1
Format : AVC
Format/Info : Advanced Video Codec
Format profile : High@L4.1
Format settings : CABAC / 12 Ref Frames
Format settings, CABAC : Yes
Format settings, Reference frames : 12 frames
Codec ID : V_MPEG4/ISO/AVC
Duration : 1 h 38 min
Bit rate : 966 kb/s
Width : 720 pixels
Height : 302 pixels
Display aspect ratio : 2.40:1
Frame rate mode : Constant
Frame rate : 24.000 FPS
Color space : YUV
Chroma subsampling : 4:2:0
Bit depth : 8 bits
Scan type : Progressive
Bits/(Pixel*Frame) : 0.185
Stream size : 677 MiB (91%)
Title : wolf1245_MediaBit
Writing library : x264 core 157 r2958 57baac4
Encoding settings : cabac=1 / ref=12 / deblock=1:-3:-3 / analyse=0x3:0x133 / me=umh / subme=11 / psy=1 / psy_rd=1.02:0.05 / mixed_ref=1 / me_range=48 / chroma_me=1 / trellis=2 / 8x8dct=1 / cqm=0 / deadzone=21,11 / fast_pskip=0 / chroma_qp_offset=-3 / threads=10 / lookahead_threads=2 / sliced_threads=0 / nr=0 / decimate=0 / interlaced=0 / bluray_compat=0 / constrained_intra=0 / bframes=12 / b_pyramid=2 / b_adapt=2 / b_bias=0 / direct=3 / weightb=1 / open_gop=0 / weightp=2 / keyint=240 / keyint_min=24 / scenecut=40 / intra_refresh=0 / rc_lookahead=100 / rc=2pass / mbtree=0 / bitrate=966 / ratetol=1.0 / qcomp=0.60 / qpmin=0 / qpmax=69 / qpstep=4 / cplxblur=20.0 / qblur=0.5 / vbv_maxrate=50000 / vbv_bufsize=62500 / nal_hrd=none / filler=0 / ip_ratio=1.40 / pb_ratio=1.30 / aq=1:0.80
Language : Russian
Default : Yes
Forced : No
Color range : Limited
Color primaries : BT.709
Transfer characteristics : BT.709
Matrix coefficients : BT.709
Audio
ID : 2
Format : AAC LC SBR
Format/Info : Advanced Audio Codec Low Complexity with Spectral Band Replication
Commercial name : HE-AAC
Format settings : Implicit
Codec ID : A_AAC-2
Duration : 1 h 38 min
Bit rate : 96.0 kb/s
Channel(s) : 2 channels
Channel layout : L R
Sampling rate : 48.0 kHz
Frame rate : 23.438 FPS (2048 SPF)
Compression mode : Lossy
Stream size : 67.4 MiB (9%)
Title : RUS
Language : Russian
Default : Yes
Forced : No
Text
ID : 3
Format : UTF-8
Codec ID : S_TEXT/UTF8
Codec ID/Info : UTF-8 Plain Text
Duration : 1 h 33 min
Bit rate : 86 b/s
Count of elements : 1219
Stream size : 59.2 KiB (0%)
Title : rusFull
Language : Russian
Default : No
Forced : No
Релиз от: & &
piratbit.pw



Скачать Мажор. Фильм через торрент https://i114.fastpic.ru/big/2021/0102/34/d81f6367ea96259a74f81a4762a7b134.jpg Скачать фильм Мажор. Фильм через торрент бесплантно в хорошем качестве Описание: Мажор виртуозно сбегает из тюрьмы и начинает новую жизнь. Новую сладкую жизнь! Соколовский вливается в светскую тусовку, где ... 7.4 10 7
Торрент: Зарегистрирован [2021-01-02 09:01] · скачан: 121 раз
Статус: √ проверено
Размер: 745 MB
Как cкачать? Как скачать Мажор. Фильм через торрент | UTorrent

% Раздел Тема Автор DL S | L
Наши фильмы (HD, WEB-DL 720p, 1080p) [ 4.08 GB ] Мажор. Фильм [2021 WEB-DL 1080p] [КиноПоиск HD] bober100 Скачать
19 | 0
Наши новые фильмы 2020 - 2021 [ 1.46 GB ] Мажор. Фильм [2021 WEB-DLRip] bober100 Скачать
28 | 1
T Наши фильмы (HD, WEB-DL 720p, 1080p) [ 2.19 GB ] Мажор. Фильм [2021 WEBRip 720p] bober100 Скачать
4 | 0

28-11-2019 20:33  

Отключить всю рекламу на сайте

    Дорогой пользователь! Огромная просьба, поблагодарите релизера, оцените раздачу и оставьте свои комментарий, если Вы скачали Мажор. Фильм через торрент бесплатно! Внесите свою лепту в развитие PiratBit!
    Комментировать посты могут только пользователи прошедшие не сложную регистрацию
    Показать сообщения:    

    Мажор. Фильм через торрент
    Скачать бесплатно Мажор. Фильм
    Мажор. Фильм скачать торрент
    Мажор. Фильм смотреть онлайн
    Cкачать фильм Мажор. Фильм бесплатно
    Мажор. Фильм скачать торрент в хорошем качестве
    Мажор. Фильм смотреть онлайн бесплатно в хорошем качестве


    Вы не можете начинать темы
    Вы не можете отвечать на сообщения
    Вы не можете редактировать свои сообщения
    Вы не можете удалять свои сообщения
    Вы не можете голосовать в опросах
    Вы не можете прикреплять файлы к сообщениям
    Вы можете скачивать файлы