2 сезон

iTunes

WEBRip

1

2 сезон

iTunes

1 сезон

1 сезон

RePack

30

Новинка

ВАЖНО

ИГРА 18+

pack

RePack

MK11
pack

Легкие деньги

RePack

jed

RePack

fifa19

RePack

RDR2

RePack

NEED FOR SPEED™ PAYBACK

4 сезон

9 сезон

Бесстыжие 9 сезон

Все сериалы

все сериалы на PB.wtf

RePack

FAR CRY 5

Anonymous, добрый вечер, мы не успеваем собрать деньги на оплату серверов за февраль, помогите нам пожалуйста в это трудное время. В качестве благодарности мы отключим Вам всю рекламу на сайте (укажите свой ник в строку Ваше имя)!

×
  
Magnet ссылка

Доктор Лиза (Оксана Карас) [2020, Драма, биография, WEB-DLRip-AVC] [iTunes] piratbit.pw

Доктор Лиза через торрент piratbit.pw

Раздают: 3 [ 0 KB/s ]
Размер: 2.21 GB | Добавлен: 1 мес. 30 д. назад | Торрент скачан:116 раз
Скачать  

25-12-2020 03:26 Доктор Лиза Скачать торрент  

Доктор Лиза
Год выпуска: 2020
Страна: Россия
Студия: Киностудия КИТ, Продюсерский центр ИВАН
Жанр: Драма, биография
Продолжительность: 01:59:58
Перевод: Не требуется | iTunes
Субтитры: отсутствуют

Режиссер: Оксана Карас

rating

В ролях: Чулпан Хаматова, Анджей Хыра, Константин Хабенский, Андрей Бурковский, Евгений Писарев, Алексей Агранович, Сергей Сосновский, Татьяна Догилева, Елена Коренева, Тимофей Трибунцев

Описание: Один день из жизни Елизаветы Петровны Глинки. История начинается с праздничного события: Елизавета и её муж Глеб готовятся отметить 30-ю годовщину свадьбы. На домашний ужин приглашены близкие друзья, приезжают сыновья. Конечно, Лиза освободила этот день, чтобы провести его с семьёй. По плану у неё только одно дело – заехать на Павелецкий вокзал, ведь там сегодня Фонд доктора Лизы «Справедливая помощь» принимает пациентов. И эта поездка оказывается полна неожиданностей.

Качество: WEB-DLRip-AVC
Формат: MKV

Видео: 1024x428 (2.40:1), 24 fps, MPEG-4 AVC, 2255 Кbps avg, 0.214 bit/pixel
Аудио: 48 kHz, AC3 Dolby Digital, 3/2 (L,C,R,l,r) + LFE ch, ~384 kbps
скриншот  скриншот  скриншот  скриншот  скриншот  

x264 [info]: frame I:1167 Avg QP:13.88 size: 70195
x264 [info]: frame P:44535 Avg QP:16.90 size: 24128
x264 [info]: frame B:127069 Avg QP:18.42 size: 6859
x264 [info]: consecutive B-frames: 2.0% 4.6% 6.1% 65.8% 6.2% 13.1% 0.8% 0.7% 0.1% 0.4% 0.2%

**********************************

Общее
Уникальный идентификатор : 15739879966144973163369886909897227150 (0xBD763FF54A2ED6A3EEC1A3FCA49BB8E)
Полное имя : Doktor.Liza.2020.WEB-DLRip.2.21Gb.x264.MegaPeer.mkv
Формат : Matroska
Версия формата : Version 4
Размер файла : 2,21 Гбайт
Продолжительность : 1 ч. 59 м.
Общий поток : 2 640 Кбит/сек
Название фильма : Доктор Лиза (2020)
Дата кодирования : UTC 2020-12-25 00:47:50
Программа кодирования : mkvmerge v47.0.0 ('Black Flag') 64-bit
Библиотека кодирования : libebml v1.3.10 + libmatroska v1.5.2
Обложка : Yes
Attachments : cover.jpg

Видео
Идентификатор : 1
Формат : AVC
Формат/Информация : Advanced Video Codec
Профиль формата : High@L4.1
Настройки формата : CABAC / 10 Ref Frames
Параметр CABAC формата : Да
Параметр RefFrames формата : 10 кадров
Идентификатор кодека : V_MPEG4/ISO/AVC
Продолжительность : 1 ч. 59 м.
Битрейт : 2 255 Кбит/сек
Ширина : 1 024 пикселя
Высота : 428 пикселей
Соотношение сторон : 2,40:1
Режим частоты кадров : Постоянный
Частота кадров : 24,000 кадра/сек
Цветовое пространство : YUV
Субдискретизация насыщенности : 4:2:0
Битовая глубина : 8 бит
Тип развёртки : Прогрессивная
Бит/(Пиксели*Кадры) : 0.214
Размер потока : 1,89 Гбайт (85%)
Заголовок : stillet@MegaPeer
Библиотека кодирования : x264 core 161 r3018 db0d417
Настройки программы : cabac=1 / ref=10 / deblock=1:-3:-3 / analyse=0x3:0x113 / me=umh / subme=11 / psy=1 / psy_rd=1.00:0.00 / mixed_ref=1 / me_range=48 / chroma_me=1 / trellis=2 / 8x8dct=1 / cqm=0 / deadzone=21,11 / fast_pskip=0 / chroma_qp_offset=-2 / threads=13 / lookahead_threads=3 / sliced_threads=0 / nr=0 / decimate=0 / interlaced=0 / bluray_compat=0 / constrained_intra=0 / bframes=10 / b_pyramid=2 / b_adapt=2 / b_bias=0 / direct=3 / weightb=1 / open_gop=0 / weightp=2 / keyint=250 / keyint_min=25 / scenecut=40 / intra_refresh=0 / rc_lookahead=40 / rc=2pass / mbtree=0 / bitrate=2255 / ratetol=1.0 / qcomp=0.60 / qpmin=0 / qpmax=69 / qpstep=4 / cplxblur=20.0 / qblur=0.5 / vbv_maxrate=50000 / vbv_bufsize=62500 / nal_hrd=none / filler=0 / ip_ratio=1.40 / pb_ratio=1.30 / aq=1:1.10
Язык : English
Default : Да
Forced : Нет

Аудио
Идентификатор : 2
Формат : AC-3
Формат/Информация : Audio Coding 3
Коммерческое название : Dolby Digital
Идентификатор кодека : A_AC3
Продолжительность : 1 ч. 59 м.
Вид битрейта : Постоянный
Битрейт : 384 Кбит/сек
Каналы : 6 каналов
Channel layout : L R C LFE Ls Rs
Частота : 48,0 КГц
Частота кадров : 31,250 кадров/сек (1536 SPF)
Метод сжатия : С потерями
Размер потока : 330 Мбайт (15%)
Заголовок : iTunes
Язык : Russian
Service kind : Complete Main
Default : Да
Forced : Нет

piratbit.pw



Скачать Доктор Лиза через торрент https://i114.fastpic.ru/big/2020/1225/61/24e04792b0e9e57231fc68bb0f249d61.jpg Скачать фильм Доктор Лиза через торрент бесплантно в хорошем качестве Описание: Один день из жизни Елизаветы Петровны Глинки. История начинается с праздничного события: Елизавета и её муж Глеб готовятся ... 7.8 10 4
Торрент: Зарегистрирован [2020-12-25 03:26] · скачан: 116 раз
Статус: √ проверено
Размер: 2.21 GB
Как cкачать? Как скачать Доктор Лиза через торрент | UTorrent

% Раздел Тема Автор DL S | L
Наши новые фильмы 2020 - 2021 [ 748 MB ] Доктор Лиза [2020 биография WEB-DLRip] bober100 Скачать
2 | 0
Фильмы (WEB-DL 720p, 1080p) [ 4.16 GB ] Доктор Лиза [2020 биография WEB-DL 1080p] bober100 Скачать
15 | 0
Наши новые фильмы 2020 - 2021 [ 1.47 GB ] Доктор Лиза [2020 биография WEB-DLRip] bober100 Скачать
5 | 0

28-11-2019 20:33  

Отключить всю рекламу на сайте

    Дорогой пользователь! Огромная просьба, поблагодарите релизера, оцените раздачу и оставьте свои комментарий, если Вы скачали Доктор Лиза через торрент бесплатно! Внесите свою лепту в развитие PiratBit!
    Комментировать посты могут только пользователи прошедшие не сложную регистрацию
    Показать сообщения:    

    Доктор Лиза через торрент
    Скачать бесплатно Доктор Лиза
    Доктор Лиза скачать торрент
    Доктор Лиза смотреть онлайн
    Cкачать фильм Доктор Лиза бесплатно
    Доктор Лиза скачать торрент в хорошем качестве
    Доктор Лиза смотреть онлайн бесплатно в хорошем качестве


    Вы не можете начинать темы
    Вы не можете отвечать на сообщения
    Вы не можете редактировать свои сообщения
    Вы не можете удалять свои сообщения
    Вы не можете голосовать в опросах
    Вы не можете прикреплять файлы к сообщениям
    Вы можете скачивать файлы