1 сезон

1 сезон

iTunes

1

КиноПоиск HD

Кинопоиск HD

iTunes

13

1 сезон

RePack

30

Новинка

ВАЖНО

ИГРА 18+

pack

RePack

MK11
pack

Легкие деньги

RePack

jed

RePack

fifa19

RePack

RDR2

RePack

NEED FOR SPEED™ PAYBACK

4 сезон

9 сезон

Бесстыжие 9 сезон

Все сериалы

все сериалы на PB.wtf

RePack

FAR CRY 5
  
Magnet ссылка

Шкаф / Keullojet / The Closet (Гван Бин Ким) [2020 г., Ужасы, мистика, HDRip-AVC] [AVO] [Дольский] от MediaBit piratbit.pw

Шкаф через торрент piratbit.pw

Размер: 1.7 GB | Добавлен: 3 мес. 29 д. назад | Торрент скачан:25 раз
Скачать  

24-12-2020 16:41 Шкаф Скачать торрент  


Шкаф / Keullojet / The Closet
Информация о фильме:
Название: Шкаф
Оригинальное название: Keullojet / The Closet
Год выхода: 2020
Жанр: Ужасы, мистика
Режиссер: Гван Бин Ким

В ролях: Чон У Ха, Нам Гил Ким, Юль Хо, Си А Ким, Сон Ун Пак, Чжи А Пак, Хён Бин Син, Су Джин Ким (I), Син Чхоль Кан, Чжа Хён Квак

Описание: Через полгода после смерти жены в автокатастрофе архитектор Сан-вон решет сменить обстановку и вместе с 11-летней дочкой И-ной переезжает в новый дом. Сам мужчина с тех пор страдает паническими атаками, а девочка замкнулась в себе. На новом месте дочь заметно оживает, и вскоре поглощенный неотложной работой отец решает отправить её в художественный лагерь. Из-за этого они ругаются, и вскоре И-на исчезает. Поиски и привлечение полиции не дают никаких результатов, когда к Сан-вону заявляется специалист по потустороннему, уверенный, что девочку забрал шкаф в её комнате.



Страна: Южная Корея
Студия: Moonlight Film, Perfect Storm Film
Продолжительность: 01:37:52
Перевод: Авторский - А. Дольский



Информация о файле:
Кодек: AVC
Формат: MKV
Качество: HDRip-AVC
Видео: MPEG-4 AVC, 1024x428, 24.000 fps, 2041 kb/s
Аудио RU: AC3, 6 ch, 48 kHz, 448 kbps
Субтитры: Русские, английские
Навигация по главам: Да

General
Unique ID : 156164872078650104353937629749004351799 (0x757C42A5A0830065F2A6B361B4223937)
Complete name : D:uTorrentРипы_от_wolf1245_MediaBitKeullojet.2020.HDRip-AVC_wolf1245_MediaBit.mkv
Format : Matroska
Format version : Version 4
File size : 1.70 GiB
Duration : 1 h 37 min
Overall bit rate : 2 490 kb/s
Movie name : Keullojet.2020.HDRip-AVC_wolf1245_MediaBit
Encoded date : UTC 2020-12-24 15:12:56
Writing application : mkvmerge v51.0.0 ('I Wish') 64-bit
Writing library : libebml v1.4.0 + libmatroska v1.6.2
Attachments : poster.jpg / 10892.otf / arialbd.ttf / GOTHICB.TTF
Video
ID : 1
Format : AVC
Format/Info : Advanced Video Codec
Format profile : High@L4.1
Format settings : CABAC / 10 Ref Frames
Format settings, CABAC : Yes
Format settings, Reference frames : 10 frames
Codec ID : V_MPEG4/ISO/AVC
Duration : 1 h 37 min
Bit rate : 2 041 kb/s
Width : 1 024 pixels
Height : 428 pixels
Display aspect ratio : 2.40:1
Frame rate mode : Constant
Frame rate : 24.000 FPS
Color space : YUV
Chroma subsampling : 4:2:0
Bit depth : 8 bits
Scan type : Progressive
Bits/(Pixel*Frame) : 0.194
Stream size : 1.39 GiB (82%)
Title : wolf1245_MediaBit
Writing library : x264 core 157 r2958 57baac4
Encoding settings : cabac=1 / ref=10 / deblock=1:-3:-3 / analyse=0x3:0x133 / me=umh / subme=11 / psy=1 / psy_rd=1.05:0.00 / mixed_ref=1 / me_range=48 / chroma_me=1 / trellis=2 / 8x8dct=1 / cqm=0 / deadzone=21,11 / fast_pskip=0 / chroma_qp_offset=-2 / threads=10 / lookahead_threads=2 / sliced_threads=0 / nr=0 / decimate=0 / interlaced=0 / bluray_compat=0 / constrained_intra=0 / bframes=10 / b_pyramid=2 / b_adapt=2 / b_bias=0 / direct=3 / weightb=1 / open_gop=0 / weightp=2 / keyint=240 / keyint_min=24 / scenecut=40 / intra_refresh=0 / rc_lookahead=100 / rc=2pass / mbtree=0 / bitrate=2041 / ratetol=1.0 / qcomp=0.60 / qpmin=0 / qpmax=69 / qpstep=4 / cplxblur=20.0 / qblur=0.5 / vbv_maxrate=50000 / vbv_bufsize=62500 / nal_hrd=none / filler=0 / ip_ratio=1.40 / pb_ratio=1.30 / aq=1:0.80
Language : Korean
Default : Yes
Forced : No
Color range : Limited
Color primaries : BT.709
Transfer characteristics : BT.709
Matrix coefficients : BT.709
Audio
ID : 2
Format : AC-3
Format/Info : Audio Coding 3
Commercial name : Dolby Digital
Codec ID : A_AC3
Duration : 1 h 37 min
Bit rate mode : Constant
Bit rate : 448 kb/s
Channel(s) : 6 channels
Channel layout : L R C LFE Ls Rs
Sampling rate : 48.0 kHz
Frame rate : 31.250 FPS (1536 SPF)
Compression mode : Lossy
Stream size : 314 MiB (18%)
Title : AVO | Дольский
Language : Russian
Service kind : Complete Main
Default : Yes
Forced : No
Text #1
ID : 3
Format : UTF-8
Codec ID : S_TEXT/UTF8
Codec ID/Info : UTF-8 Plain Text
Duration : 1 h 30 min
Bit rate : 51 b/s
Count of elements : 748
Stream size : 34.2 KiB (0%)
Language : Russian
Default : No
Forced : No
Text #2
ID : 4
Format : UTF-8
Codec ID : S_TEXT/UTF8
Codec ID/Info : UTF-8 Plain Text
Duration : 1 h 30 min
Bit rate : 30 b/s
Count of elements : 744
Stream size : 20.1 KiB (0%)
Language : English
Default : No
Forced : No
Menu
00:00:00.000 : :Chapter 01
00:03:03.875 : :Chapter 02
00:08:58.250 : :Chapter 03
00:14:46.875 : :Chapter 04
00:18:54.208 : :Chapter 05
00:25:27.292 : :Chapter 06
00:29:57.000 : :Chapter 07
00:36:37.417 : :Chapter 08
00:41:02.208 : :Chapter 09
00:47:26.625 : :Chapter 10
00:55:44.958 : :Chapter 11
01:06:55.833 : :Chapter 12
01:12:36.333 : :Chapter 13
01:18:45.958 : :Chapter 14
01:26:42.250 : :Chapter 15
01:34:00.000 : :Chapter 16
Релиз от: & &
piratbit.pw



Скачать Шкаф через торрент https://a.radikal.ru/a39/2012/9c/9cbf089f9e72.png Скачать фильм Шкаф через торрент бесплантно в хорошем качестве Описание: Через полгода после смерти жены в автокатастрофе архитектор Сан-вон решет сменить обстановку и вместе с 11-летней дочкой И-ной ... 7.8 10 4
Торрент: Зарегистрирован [2020-12-24 16:41] · скачан: 25 раз
Статус: √ проверено
Размер: 1.7 GB
Как cкачать? Как скачать Шкаф через торрент | UTorrent

28-11-2019 20:33  

Отключить всю рекламу на сайте

    Дорогой пользователь! Огромная просьба, поблагодарите релизера, оцените раздачу и оставьте свои комментарий, если Вы скачали Шкаф через торрент бесплатно! Внесите свою лепту в развитие PiratBit!
    Комментировать посты могут только пользователи прошедшие не сложную регистрацию
    Показать сообщения:    

    Шкаф через торрент
    Скачать бесплатно Шкаф
    Шкаф скачать торрент
    Шкаф смотреть онлайн
    Cкачать фильм Шкаф бесплатно
    Шкаф скачать торрент в хорошем качестве
    Шкаф смотреть онлайн бесплатно в хорошем качестве


    Вы не можете начинать темы
    Вы не можете отвечать на сообщения
    Вы не можете редактировать свои сообщения
    Вы не можете удалять свои сообщения
    Вы не можете голосовать в опросах
    Вы не можете прикреплять файлы к сообщениям
    Вы можете скачивать файлы