2 сезон

iTunes

WEBRip

1

2 сезон

iTunes

1 сезон

1 сезон

RePack

30

Новинка

ВАЖНО

ИГРА 18+

pack

RePack

MK11
pack

Легкие деньги

RePack

jed

RePack

fifa19

RePack

RDR2

RePack

NEED FOR SPEED™ PAYBACK

4 сезон

9 сезон

Бесстыжие 9 сезон

Все сериалы

все сериалы на PB.wtf

RePack

FAR CRY 5

Anonymous, доброй ночи, мы не успеваем собрать деньги на оплату серверов за февраль, помогите нам пожалуйста в это трудное время. В качестве благодарности мы отключим Вам всю рекламу на сайте (укажите свой ник в строку Ваше имя)!

×
  
Magnet ссылка

Кольская сверхглубокая (Арсений Сюхин) [2020, Триллер, ужасы, WEB-DLRip-AVC] [iTunes] piratbit.pw

Кольская сверхглубокая через торрент piratbit.pw

Раздают: 4 [ 0 KB/s ]
Размер: 1.65 GB | Добавлен: 2 мес. 17 д. назад | Торрент скачан:589 раз
Скачать  

19-12-2020 11:04 Кольская сверхглубокая Скачать торрент  

Кольская сверхглубокая
Год выпуска: 2020
Страна: Россия
Выпущено: Трио Фильм
Жанр: Триллер, ужасы
Продолжительность: 01:55:00
Перевод: Не требуется | iTunes
Субтитры: отсутствуют

Режиссер: Арсений Сюхин

rating

В ролях: Милена Радулович, Сергей Иванюк, Николай Ковбас, Вадим Демчог, Кирилл Ковбас, Никита Дювбанов, Виктор Низовой, Артём Цуканов, Илья Ильиных, Владимир Колида

Описание: Кольская сверхглубокая скважина - самый масштабный секретный объект страны. В 1984 году на глубине более 12 километров были записаны необъяснимые звуки, похожие на крики множества голосов. После этих событий объект закрывают. Небольшая исследовательская группа отправляется под землю, чтобы узнать, какую тайну скрывает глубочайшая скважина в мире. То, что они обнаружили, оказывается величайшей угрозой в истории. Теперь будущее человечества находится в их руках.

Качество: WEB-DLRip-AVC
Формат: MKV

Видео: AVC/H.264, 1024x386, ~1673 kbps, 0.176 b/px, 24.000 fps
Аудио: 48 kHz, AC3 Dolby Digital, 3/2 (L, C, R, l, r) + LFE ch, ~384 kbps
скриншот  скриншот  скриншот  скриншот  скриншот  

x264 info: frame I:1182 Avg QP:12.81 size: 49568
x264 info: frame P:41152 Avg QP:15.63 size: 17793
x264 info: frame B:123265 Avg QP:17.72 size: 5283
------------------------------------------------------------
General
Unique ID : 35169335294100955001930867326184551398 (0x1A755E1AD1693E61566193D8F08373E6)
Complete name : D:ТоррентKolskaya.sverhglubokaya.2020.WEB-DLRip.AVC.mikos.mkv
Format : Matroska
Format version : Version 4
File size : 1.65 GiB
Duration : 1 h 55 min
Overall bit rate : 2 058 kb/s
Movie name : Kolskaya.sverhglubokaya.2020.WEB-DLRip.AVC.mikos
Encoded date : UTC 2020-12-19 09:20:24
Writing application : mkvmerge v51.0.0 ('I Wish') 64-bit
Writing library : libebml v1.4.0 + libmatroska v1.6.2

Video
ID : 1
Format : AVC
Format/Info : Advanced Video Codec
Format profile : High@L4.1
Format settings : CABAC / 11 Ref Frames
Format settings, CABAC : Yes
Format settings, Reference frames : 11 frames
Codec ID : V_MPEG4/ISO/AVC
Duration : 1 h 54 min
Bit rate : 1 673 kb/s
Width : 1 024 pixels
Height : 386 pixels
Display aspect ratio : 2.653
Frame rate mode : Constant
Frame rate : 24.000 FPS
Color space : YUV
Chroma subsampling : 4:2:0
Bit depth : 8 bits
Scan type : Progressive
Bits/(Pixel*Frame) : 0.176
Stream size : 1.34 GiB (81%)
Title : Rip by mikos
Writing library : x264 core 161 r3020 d198931
Encoding settings : cabac=1 / ref=11 / deblock=1:-2:-1 / analyse=0x3:0x133 / me=umh / subme=11 / psy=1 / psy_rd=1.00:0.12 / mixed_ref=1 / me_range=32 / chroma_me=1 / trellis=2 / 8x8dct=1 / cqm=0 / deadzone=21,11 / fast_pskip=0 / chroma_qp_offset=-3 / threads=12 / lookahead_threads=3 / sliced_threads=0 / nr=0 / decimate=0 / interlaced=0 / bluray_compat=0 / constrained_intra=0 / bframes=12 / b_pyramid=2 / b_adapt=2 / b_bias=0 / direct=3 / weightb=1 / open_gop=0 / weightp=2 / keyint=240 / keyint_min=23 / scenecut=40 / intra_refresh=0 / rc_lookahead=40 / rc=2pass / mbtree=0 / bitrate=1673 / ratetol=1.0 / qcomp=0.60 / qpmin=0 / qpmax=69 / qpstep=4 / cplxblur=20.0 / qblur=0.5 / vbv_maxrate=50000 / vbv_bufsize=65000 / nal_hrd=none / filler=0 / ip_ratio=1.40 / pb_ratio=1.30 / aq=2:0.90
Language : English
Default : Yes
Forced : No
Color range : Limited
Color primaries : BT.709
Transfer characteristics : BT.709
Matrix coefficients : BT.709

Audio
ID : 2
Format : AC-3
Format/Info : Audio Coding 3
Commercial name : Dolby Digital
Codec ID : A_AC3
Duration : 1 h 55 min
Bit rate mode : Constant
Bit rate : 384 kb/s
Channel(s) : 6 channels
Channel layout : L R C LFE Ls Rs
Sampling rate : 48.0 kHz
Frame rate : 31.250 FPS (1536 SPF)
Compression mode : Lossy
Stream size : 316 MiB (19%)
Title : Original (iTunes)
Language : Russian
Service kind : Complete Main
Default : Yes
Forced : No

Menu
00:00:00.000 : :Глава 1
00:05:11.666 : :Глава 2
00:09:19.582 : :Глава 3
00:15:24.957 : :Глава 4
00:24:27.832 : :Глава 5
00:33:05.915 : :Глава 6
00:43:51.581 : :Глава 7
00:54:50.414 : :Глава 8
01:01:07.747 : :Глава 9
01:08:05.122 : :Глава 10
01:17:34.163 : :Глава 11
01:25:43.746 : :Глава 12
01:36:32.246 : :Глава 13
01:44:10.704 : :Глава 14
01:50:27.620 : :Глава 15

piratbit.pw



Скачать Кольская сверхглубокая через торрент https://img11.lostpic.net/2020/12/17/69f18110b9a13509b586abc0138bee5f.jpg Скачать фильм Кольская сверхглубокая через торрент бесплантно в хорошем качестве Описание: Кольская сверхглубокая скважина - самый масштабный секретный объект страны. В 1984 году на глубине более 12 километров были ... 9.1 10 16
Info! Золотая раздача, скачанное не засчитывается.
Торрент: Зарегистрирован [2020-12-19 11:04] · скачан: 589 раз
Статус: √ проверено
Размер: 1.65 GB
Как cкачать? Как скачать Кольская сверхглубокая через торрент | UTorrent

% Раздел Тема Автор DL S | L
Наши фильмы (HD, WEB-DL 720p, 1080p) [ 3.61 GB ] Кольская сверхглубокая [2020 WEB-DL 720p] bober100 Скачать
8 | 0
Наши фильмы (HD, WEB-DL 720p, 1080p) [ 4 GB ] Кольская сверхглубокая [2020 WEB-DL 1080p] bober100 Скачать
13 | 0
Наши новые фильмы 2020 - 2021 [ 750 MB ] Кольская сверхглубокая [2020 WEB-DLRip] bober100 Скачать
1 | 0
Наши новые фильмы 2020 - 2021 [ 1.46 GB ] Кольская сверхглубокая [2020 WEB-DLRip] bober100 Скачать
4 | 0
Наши новые фильмы 2020 - 2021 [ 746 MB ] Кольская сверхглубокая [2020 WEB-DLRip-AVC] [RUS] от Mediabit Lithuania Скачать
4 | 0

28-11-2019 20:33  

Отключить всю рекламу на сайте

19-12-2020 15:37 Кольская сверхглубокая Скачать торрент  

редкий шлак piratbit.pw



19-12-2020 18:49 Кольская сверхглубокая Скачать торрент  

Как фильм ?piratbit.pw



19-12-2020 19:17 Кольская сверхглубокая Скачать торрент  

Опять содрали сюжет и прилепили к шахте,Дед спейс ин раша майн.piratbit.pw



20-12-2020 14:09 Кольская сверхглубокая Скачать торрент  

Как люди могли спустится на лифте, когда в действительности диаметр верхней части скважины 92 см, а нижней части — 21,5 см. Тупизм.piratbit.pw



22-12-2020 18:01 Кольская сверхглубокая Скачать торрент  

да ладно. На 1 раз посмотреть можно. смотрибельно если сильно не придиратьсяpiratbit.pw



05-01-2021 15:47 Кольская сверхглубокая Скачать торрент  

Присоединяюсь к вышесказанному...Из нормального только название фильма...остальное бред бредячий!piratbit.pw



    Дорогой пользователь! Огромная просьба, поблагодарите релизера, оцените раздачу и оставьте свои комментарий, если Вы скачали Кольская сверхглубокая через торрент бесплатно! Внесите свою лепту в развитие PiratBit!
    Комментировать посты могут только пользователи прошедшие не сложную регистрацию
    Показать сообщения:    

    Кольская сверхглубокая через торрент
    Скачать бесплатно Кольская сверхглубокая
    Кольская сверхглубокая скачать торрент
    Кольская сверхглубокая смотреть онлайн
    Cкачать фильм Кольская сверхглубокая бесплатно
    Кольская сверхглубокая скачать торрент в хорошем качестве
    Кольская сверхглубокая смотреть онлайн бесплатно в хорошем качестве


    Вы не можете начинать темы
    Вы не можете отвечать на сообщения
    Вы не можете редактировать свои сообщения
    Вы не можете удалять свои сообщения
    Вы не можете голосовать в опросах
    Вы не можете прикреплять файлы к сообщениям
    Вы можете скачивать файлы