2 сезон

iTunes

WEBRip

1

2 сезон

iTunes

1 сезон

1 сезон

RePack

30

Новинка

ВАЖНО

ИГРА 18+

pack

RePack

MK11
pack

Легкие деньги

RePack

jed

RePack

fifa19

RePack

RDR2

RePack

NEED FOR SPEED™ PAYBACK

4 сезон

9 сезон

Бесстыжие 9 сезон

Все сериалы

все сериалы на PB.wtf

RePack

FAR CRY 5

Anonymous, доброе утро, мы не успеваем собрать деньги на оплату серверов за февраль, помогите нам пожалуйста в это трудное время. В качестве благодарности мы отключим Вам всю рекламу на сайте (укажите свой ник в строку Ваше имя)!

×
  
Magnet ссылка

Кольская сверхглубокая (Арсений Сюхин) [2020, Триллер, ужасы, WEB-DLRip-AVC] [RUS] [iTunes] от Mediabit piratbit.pw

Кольская сверхглубокая через торрент piratbit.pw

Раздают: 3 [ 0 KB/s ]
Размер: 746 MB | Добавлен: 2 мес. 9 д. назад | Торрент скачан:151 раз
Скачать  

17-12-2020 16:24 Кольская сверхглубокая Скачать торрент  


Кольская сверхглубокая
Информация о фильме:
Название: Кольская сверхглубокая
Год выхода: 2020
Жанр: Триллер, ужасы
Режиссер: Арсений Сюхин

В ролях: Милена Радулович, Сергей Иванюк, Николай Ковбас, Вадим Демчог, Кирилл Ковбас, Никита Дювбанов, Виктор Низовой, Артём Цуканов, Илья Ильиных, Владимир Колида

Описание: Кольская сверхглубокая скважина - самый масштабный секретный объект страны. В 1984 году на глубине более 12 километров были записаны необъяснимые звуки, похожие на крики множества голосов. После этих событий объект закрывают. Небольшая исследовательская группа отправляется под землю, чтобы узнать, какую тайну скрывает глубочайшая скважина в мире. То, что они обнаружили, оказывается величайшей угрозой в истории. Теперь будущее человечества находится в их руках.



Страна: Россия
Студия: Трио Фильм
Продолжительность: 01:55:00
Перевод: Не требуется - iTunes



Информация о файле:
Кодек: AVC
Формат: MKV
Качество: WEB-DLRip-AVC
Видео: MPEG-4 AVC, 720x272, 24.000 fps, 810 kbps
Аудио RU: AAC-HE, 2 ch, 48 kHz, 96 kbps
Навигация по главам: Да

General
Unique ID : 175832848166978313456349273115834818507 (0x84482CBC5C88A175C65F84AF3CAD9FCB)
Complete name : D:uTorrentРипы_от_wolf1245_MediaBitKolskaya.Sverhglubokay.2020.WEB-DLRip-AVC_wolf1245_MediaBit.mkv
Format : Matroska
Format version : Version 4
File size : 746 MiB
Duration : 1 h 55 min
Overall bit rate : 907 kb/s
Movie name : Kolskaya.Sverhglubokay.2020.WEB-DLRip-AVC_wolf1245_MediaBit
Encoded date : UTC 2020-12-17 16:08:01
Writing application : mkvmerge v51.0.0 ('I Wish') 64-bit
Writing library : libebml v1.4.0 + libmatroska v1.6.2
Video
ID : 1
Format : AVC
Format/Info : Advanced Video Codec
Format profile : High@L4.1
Format settings : CABAC / 12 Ref Frames
Format settings, CABAC : Yes
Format settings, Reference frames : 12 frames
Codec ID : V_MPEG4/ISO/AVC
Duration : 1 h 54 min
Bit rate : 810 kb/s
Width : 720 pixels
Height : 272 pixels
Display aspect ratio : 2.657
Frame rate mode : Constant
Frame rate : 24.000 FPS
Color space : YUV
Chroma subsampling : 4:2:0
Bit depth : 8 bits
Scan type : Progressive
Bits/(Pixel*Frame) : 0.172
Stream size : 666 MiB (89%)
Title : wolf1245_MediaBit
Writing library : x264 core 157 r2958 57baac4
Encoding settings : cabac=1 / ref=12 / deblock=1:-3:-3 / analyse=0x3:0x133 / me=umh / subme=11 / psy=1 / psy_rd=1.03:0.03 / mixed_ref=1 / me_range=48 / chroma_me=1 / trellis=2 / 8x8dct=1 / cqm=0 / deadzone=21,11 / fast_pskip=0 / chroma_qp_offset=-3 / threads=10 / lookahead_threads=2 / sliced_threads=0 / nr=0 / decimate=0 / interlaced=0 / bluray_compat=0 / constrained_intra=0 / bframes=12 / b_pyramid=2 / b_adapt=2 / b_bias=0 / direct=3 / weightb=1 / open_gop=0 / weightp=2 / keyint=240 / keyint_min=24 / scenecut=40 / intra_refresh=0 / rc_lookahead=100 / rc=2pass / mbtree=0 / bitrate=810 / ratetol=1.0 / qcomp=0.60 / qpmin=0 / qpmax=69 / qpstep=4 / cplxblur=20.0 / qblur=0.5 / vbv_maxrate=50000 / vbv_bufsize=62500 / nal_hrd=none / filler=0 / ip_ratio=1.40 / pb_ratio=1.30 / aq=1:0.80
Language : English
Default : Yes
Forced : No
Color range : Limited
Color primaries : BT.709
Transfer characteristics : BT.709
Matrix coefficients : BT.709
Audio
ID : 2
Format : AAC LC SBR
Format/Info : Advanced Audio Codec Low Complexity with Spectral Band Replication
Commercial name : HE-AAC
Format settings : Implicit
Codec ID : A_AAC-2
Duration : 1 h 55 min
Bit rate : 96.0 kb/s
Channel(s) : 2 channels
Channel layout : L R
Sampling rate : 48.0 kHz
Frame rate : 23.438 FPS (2048 SPF)
Compression mode : Lossy
Stream size : 79.0 MiB (11%)
Title : Original | iTunes
Language : Russian
Default : Yes
Forced : No
Menu
00:00:00.000 : :Глава 1
00:05:11.666 : :Глава 2
00:09:19.582 : :Глава 3
00:15:24.957 : :Глава 4
00:24:27.832 : :Глава 5
00:33:05.915 : :Глава 6
00:43:51.581 : :Глава 7
00:54:50.414 : :Глава 8
01:01:07.747 : :Глава 9
01:08:05.122 : :Глава 10
01:17:34.163 : :Глава 11
01:25:43.746 : :Глава 12
01:36:32.246 : :Глава 13
01:44:10.704 : :Глава 14
01:50:27.620 : :Глава 15
Релиз от: & &
piratbit.pw



Скачать Кольская сверхглубокая через торрент https://d.radikal.ru/d34/2012/84/ef3cf49fc894.jpg Скачать фильм Кольская сверхглубокая через торрент бесплантно в хорошем качестве Описание: Кольская сверхглубокая скважина - самый масштабный секретный объект страны. В 1984 году на глубине более 12 километров были ... 8.9 10 8
Торрент: Зарегистрирован [2020-12-17 16:24] · скачан: 151 раз
Статус: √ проверено
Размер: 746 MB
Как cкачать? Как скачать Кольская сверхглубокая через торрент | UTorrent

28-11-2019 20:33  

Отключить всю рекламу на сайте


19-12-2020 15:38 Кольская сверхглубокая Скачать торрент  

дряньpiratbit.pw



    Дорогой пользователь! Огромная просьба, поблагодарите релизера, оцените раздачу и оставьте свои комментарий, если Вы скачали Кольская сверхглубокая через торрент бесплатно! Внесите свою лепту в развитие PiratBit!
    Комментировать посты могут только пользователи прошедшие не сложную регистрацию
    Показать сообщения:    

    Кольская сверхглубокая через торрент
    Скачать бесплатно Кольская сверхглубокая
    Кольская сверхглубокая скачать торрент
    Кольская сверхглубокая смотреть онлайн
    Cкачать фильм Кольская сверхглубокая бесплатно
    Кольская сверхглубокая скачать торрент в хорошем качестве
    Кольская сверхглубокая смотреть онлайн бесплатно в хорошем качестве


    Вы не можете начинать темы
    Вы не можете отвечать на сообщения
    Вы не можете редактировать свои сообщения
    Вы не можете удалять свои сообщения
    Вы не можете голосовать в опросах
    Вы не можете прикреплять файлы к сообщениям
    Вы можете скачивать файлы