2 сезон

iTunes

WEBRip

1

2 сезон

iTunes

1 сезон

1 сезон

RePack

30

Новинка

ВАЖНО

ИГРА 18+

pack

RePack

MK11
pack

Легкие деньги

RePack

jed

RePack

fifa19

RePack

RDR2

RePack

NEED FOR SPEED™ PAYBACK

4 сезон

9 сезон

Бесстыжие 9 сезон

Все сериалы

все сериалы на PB.wtf

RePack

FAR CRY 5

Anonymous, доброй ночи, мы не успеваем собрать деньги на оплату серверов за февраль, помогите нам пожалуйста в это трудное время. В качестве благодарности мы отключим Вам всю рекламу на сайте (укажите свой ник в строку Ваше имя)!

×
  
Magnet ссылка

Подольские курсанты (Вадим Шмелев) [2020 г., Военный, драма, история, боевик, WEB-DLRip-AVC] [RUS] [iTunes] piratbit.pw

Подольские курсанты через торрент piratbit.pw

Раздают: 5 [ 0 KB/s ]
Размер: 1.45 GB | Добавлен: 2 мес. 17 д. назад | Торрент скачан:152 раза
Скачать  

11-12-2020 08:47 Подольские курсанты Скачать торрент  


Подольские курсанты
Информация о фильме:
Название: Подольские курсанты
Год выхода: 2020
Жанр: Военный, драма, история, боевик
Режиссер: Вадим Шмелев

В ролях: Алексей Бардуков, Евгений Дятлов, Сергей Безруков, Любовь Константинова, Артём Губин, Игорь Юдин, Гурам Баблишвили, Дмитрий Соломыкин, Роман Мадянов, Екатерина Редникова

Описание: Октябрь 1941 года, Подмосковье. Около трёх с половиной тысяч курсантов подольских артиллерийского и пехотного училищ получают приказ занять оборону на Ильинском рубеже и совместно с регулярными частями 43-й армии сдерживать наступление фашистских захватчиков, пока не подойдёт подкрепление. Погибая, вчерашние мальчишки держат оборону от многократно превышающих сил немцев и на двенадцать дней становятся преградой на пути врага к Москве.

rating

Страна: Россия
Студия: Студия "Военфильм"
Продолжительность: 02:16:19
Перевод: Не требуется | iTunes



Информация о файле:
Кодек: AVC
Формат: MKV
Качество: WEB-DLRip-AVC
Видео: MPEG-4 AVC, 1024x430 (2.40:1), 25.000 fps, 1139 kbps, 0.103
Аудио RU: AC3, 6 ch, 48 kHz, 384 kbps
Навигация по главам: Да

General
Unique ID : 309331845632113817724739332409564144149 (0xE8B7257C250281861FACF92DBF712215)
Complete name : D:uTorrentРипы_от_wolf1245_MediaBitPodolskie.kursantyi.2019.WEB-DLRip-AVC_from_wolf1245_MediaBit.mkv
Format : Matroska
Format version : Version 4
File size : 1.45 GiB
Duration : 2 h 16 min
Overall bit rate : 1 522 kb/s
Movie name : Podolskie.kursantyi.2019.WEB-DLRip-AVC_from_wolf1245_MediaBit
Encoded date : UTC 2020-12-11 08:25:17
Writing application : mkvmerge v51.0.0 ('I Wish') 64-bit
Writing library : libebml v1.4.0 + libmatroska v1.6.2
Video
ID : 1
Format : AVC
Format/Info : Advanced Video Codec
Format profile : High@L4.1
Format settings : CABAC / 12 Ref Frames
Format settings, CABAC : Yes
Format settings, Reference frames : 12 frames
Codec ID : V_MPEG4/ISO/AVC
Duration : 2 h 16 min
Bit rate : 1 139 kb/s
Width : 1 024 pixels
Height : 430 pixels
Display aspect ratio : 2.40:1
Frame rate mode : Constant
Frame rate : 25.000 FPS
Color space : YUV
Chroma subsampling : 4:2:0
Bit depth : 8 bits
Scan type : Progressive
Bits/(Pixel*Frame) : 0.103
Stream size : 1.08 GiB (75%)
Title : wolf1245_MediaBit
Writing library : x264 core 157 r2958 57baac4
Encoding settings : cabac=1 / ref=12 / deblock=1:-3:-3 / analyse=0x3:0x133 / me=umh / subme=11 / psy=1 / psy_rd=1.03:0.03 / mixed_ref=1 / me_range=48 / chroma_me=1 / trellis=2 / 8x8dct=1 / cqm=0 / deadzone=21,11 / fast_pskip=0 / chroma_qp_offset=-3 / threads=10 / lookahead_threads=2 / sliced_threads=0 / nr=0 / decimate=0 / interlaced=0 / bluray_compat=0 / constrained_intra=0 / bframes=12 / b_pyramid=2 / b_adapt=2 / b_bias=0 / direct=3 / weightb=1 / open_gop=0 / weightp=2 / keyint=250 / keyint_min=25 / scenecut=40 / intra_refresh=0 / rc_lookahead=60 / rc=2pass / mbtree=0 / bitrate=1139 / ratetol=1.0 / qcomp=0.60 / qpmin=0 / qpmax=69 / qpstep=4 / cplxblur=20.0 / qblur=0.5 / vbv_maxrate=50000 / vbv_bufsize=62500 / nal_hrd=none / filler=0 / ip_ratio=1.40 / pb_ratio=1.30 / aq=1:0.80
Language : Russian
Default : Yes
Forced : No
Color range : Limited
Color primaries : BT.709
Transfer characteristics : BT.709
Matrix coefficients : BT.709
Audio
ID : 2
Format : AC-3
Format/Info : Audio Coding 3
Commercial name : Dolby Digital
Codec ID : A_AC3
Duration : 2 h 16 min
Bit rate mode : Constant
Bit rate : 384 kb/s
Channel(s) : 6 channels
Channel layout : L R C LFE Ls Rs
Sampling rate : 48.0 kHz
Frame rate : 31.250 FPS (1536 SPF)
Compression mode : Lossy
Stream size : 374 MiB (25%)
Title : Original | iTunes
Language : Russian
Service kind : Complete Main
Default : Yes
Forced : No
Menu
00:00:00.000 : :Глава 1
00:08:02.880 : :Глава 2
00:17:11.240 : :Глава 3
00:25:26.440 : :Глава 4
00:34:15.719 : :Глава 5
00:42:55.920 : :Глава 6
00:51:18.920 : :Глава 7
00:59:43.440 : :Глава 8
01:08:07.960 : :Глава 9
01:17:32.760 : :Глава 10
01:26:53.040 : :Глава 11
01:35:00.720 : :Глава 12
01:44:19.720 : :Глава 13
01:52:58.279 : :Глава 14
02:01:30.958 : :Глава 15
Релиз от: & &
piratbit.pw



Скачать Подольские курсанты через торрент https://i114.fastpic.ru/big/2020/1210/59/7ac11f0ce2be63debb8a9fc276825659.jpg Скачать фильм Подольские курсанты через торрент бесплантно в хорошем качестве Описание: Октябрь 1941 года, Подмосковье. Около трёх с половиной тысяч курсантов подольских артиллерийского и пехотного училищ получают ... 9.2 10 11
Info! Золотая раздача, скачанное не засчитывается.
Торрент: Зарегистрирован [2020-12-11 08:47] · скачан: 152 раз
Статус: √ проверено
Размер: 1.45 GB
Как cкачать? Как скачать Подольские курсанты через торрент | UTorrent

% Раздел Тема Автор DL S | L
Наши новые фильмы 2020 - 2021 [ 1.46 GB ] Подольские курсанты [2020 Военный история WEB-DLRip] bober100 Скачать
6 | 0
Наши фильмы (HD, WEB-DL 720p, 1080p) [ 4.71 GB ] Подольские курсанты [2020 Военный история WEB-DL 1080p] bober100 Скачать
11 | 0
Наши фильмы (HD, WEB-DL 720p, 1080p) [ 3.84 GB ] Подольские курсанты [2020 Военный история WEB-DLRip 720p] - ExKinoRay Enigma2010 Скачать
113 | 1
Наши новые фильмы 2020 - 2021 [ 748 MB ] Подольские курсанты [2020 Военный история WEB-DLRip] bober100 Скачать
2 | 0
Наши новые фильмы 2020 - 2021 [ 2.18 GB ] Подольские курсанты [2020 Военный история WEB-DLRip] [Русский] [ / ] СидБот Скачать
9 | 0
Наши новые фильмы 2020 - 2021 [ 1.46 GB ] Подольские курсанты [2020 Военный история WEB-DLRip] [Русский] [ / ] СидБот Скачать
28 | 0
Наши новые фильмы 2020 - 2021 [ 2.19 GB ] Подольские курсанты [2020 Военный история WEB-DLRip] bober100 Скачать
2 | 0


Последний раз редактировалось: Lithuania (2020-12-12 10:49), всего редактировалось 1 раз

28-11-2019 20:33  

Отключить всю рекламу на сайте

    Дорогой пользователь! Огромная просьба, поблагодарите релизера, оцените раздачу и оставьте свои комментарий, если Вы скачали Подольские курсанты через торрент бесплатно! Внесите свою лепту в развитие PiratBit!
    Комментировать посты могут только пользователи прошедшие не сложную регистрацию
    Показать сообщения:    

    Подольские курсанты через торрент
    Скачать бесплатно Подольские курсанты
    Подольские курсанты скачать торрент
    Подольские курсанты смотреть онлайн
    Cкачать фильм Подольские курсанты бесплатно
    Подольские курсанты скачать торрент в хорошем качестве
    Подольские курсанты смотреть онлайн бесплатно в хорошем качестве


    Вы не можете начинать темы
    Вы не можете отвечать на сообщения
    Вы не можете редактировать свои сообщения
    Вы не можете удалять свои сообщения
    Вы не можете голосовать в опросах
    Вы не можете прикреплять файлы к сообщениям
    Вы можете скачивать файлы