2 сезон

iTunes

WEBRip

1

2 сезон

iTunes

1 сезон

1 сезон

RePack

30

Ultimate

ВАЖНО

ИГРА 18+

pack

RePack

MK11
pack

Легкие деньги

RePack

jed

RePack

fifa19

RePack

RDR2

RePack

NEED FOR SPEED™ PAYBACK

4 сезон

9 сезон

Бесстыжие 9 сезон

Все сериалы

все сериалы на PB.wtf

RePack

FAR CRY 5

Anonymous, доброй ночи, мы не успеваем собрать деньги на оплату серверов за февраль, помогите нам пожалуйста в это трудное время. В качестве благодарности мы отключим Вам всю рекламу на сайте (укажите свой ник в строку Ваше имя)!

×
  
Magnet ссылка

Глубже! (Михаил Сегал) [2020, Комедия, WEB-DLRip-AVC] [RUS] [iTunes] от MediaBit piratbit.pw

Глубже! через торрент piratbit.pw

Раздают: 2 [ 0 KB/s ]
Размер: 1.45 GB | Добавлен: 2 мес. 23 д. назад | Торрент скачан:333 раза
Скачать  

10-12-2020 09:02 Глубже! Скачать торрент  


Глубже!
Информация о фильме:
Название: Глубже!
Год выхода: 2020
Жанр: Комедия
Режиссер: Михаил Сегал
В ролях: Александр Паль, Любовь Аксенова, Олег Гаас, Игорь Угольников, Игорь Верник, Семен Трескунов, Екатерина Соколова, Денис Васильев, Сергей Бурунов, Антон Лапенко

Описание: Молодой режиссер, мастер психологической глубины, попадает в порно-индустрию и заставляет всех играть по своим правилам. Никогда еще порно не было таким глубоким!



Страна: Россия
Студия: BUBBLEGUM PRODUCTION
Продолжительность: 01:48:51
Перевод: Оригинал - iTunes



Информация о файле:
Кодек: AVC
Формат: MKV
Качество: WEB-DLRip-AVC
Видео: MPEG-4 AVC, 1024x428 (2.40:1), 24.000 fps, 1524 kbps, 0.145
Аудио RU: AC3, 6 ch, 48 kHz, 384 kbps
Навигация по главам: Да

x264 info: frame I:1181 Avg QP:14.91 size: 70419
x264 info: frame P:41886 Avg QP:18.33 size: 16902
x264 info: frame B:113682 Avg QP:20.39 size: 3982
x264 info: consecutive B-frames: 2.5% 5.6% 3.6% 75.5% 3.4% 6.2% 0.6% 1.0% 0.3% 0.7% 0.3% 0.1% 0.1%
*************************************
General
Unique ID : 250368664666821129261700081910348143129 (0xBC5B40372B30ADA3AA2C26C7888E5A19)
Complete name : D:uTorrentРипы_от_wolf1245_MediaBitGlubzhe.2020.WEB-DLRip-AVC_from_wolf1245_MediaBit.mkv
Format : Matroska
Format version : Version 4
File size : 1.45 GiB
Duration : 1 h 48 min
Overall bit rate : 1 909 kb/s
Movie name : Glubzhe.2020.WEB-DLRip-AVC_from_wolf1245_MediaBit
Encoded date : UTC 2020-12-10 08:45:48
Writing application : mkvmerge v51.0.0 ('I Wish') 64-bit
Writing library : libebml v1.4.0 + libmatroska v1.6.2
Video
ID : 1
Format : AVC
Format/Info : Advanced Video Codec
Format profile : High@L4.1
Format settings : CABAC / 12 Ref Frames
Format settings, CABAC : Yes
Format settings, Reference frames : 12 frames
Codec ID : V_MPEG4/ISO/AVC
Duration : 1 h 48 min
Bit rate : 1 524 kb/s
Width : 1 024 pixels
Height : 428 pixels
Display aspect ratio : 2.40:1
Frame rate mode : Constant
Frame rate : 24.000 FPS
Color space : YUV
Chroma subsampling : 4:2:0
Bit depth : 8 bits
Scan type : Progressive
Bits/(Pixel*Frame) : 0.145
Stream size : 1.16 GiB (80%)
Title : wolf1245_MediaBit
Writing library : x264 core 157 r2958 57baac4
Encoding settings : cabac=1 / ref=12 / deblock=1:-3:-3 / analyse=0x3:0x133 / me=umh / subme=11 / psy=1 / psy_rd=1.03:0.03 / mixed_ref=1 / me_range=48 / chroma_me=1 / trellis=2 / 8x8dct=1 / cqm=0 / deadzone=21,11 / fast_pskip=0 / chroma_qp_offset=-3 / threads=10 / lookahead_threads=2 / sliced_threads=0 / nr=0 / decimate=0 / interlaced=0 / bluray_compat=0 / constrained_intra=0 / bframes=12 / b_pyramid=2 / b_adapt=2 / b_bias=0 / direct=3 / weightb=1 / open_gop=0 / weightp=2 / keyint=240 / keyint_min=24 / scenecut=40 / intra_refresh=0 / rc_lookahead=100 / rc=2pass / mbtree=0 / bitrate=1524 / ratetol=1.0 / qcomp=0.60 / qpmin=0 / qpmax=69 / qpstep=4 / cplxblur=20.0 / qblur=0.5 / vbv_maxrate=50000 / vbv_bufsize=62500 / nal_hrd=none / filler=0 / ip_ratio=1.40 / pb_ratio=1.30 / aq=1:0.80
Language : English
Default : Yes
Forced : No
Color range : Limited
Color primaries : BT.709
Transfer characteristics : BT.709
Matrix coefficients : BT.709
Audio
ID : 2
Format : AC-3
Format/Info : Audio Coding 3
Commercial name : Dolby Digital
Codec ID : A_AC3
Duration : 1 h 48 min
Bit rate mode : Constant
Bit rate : 384 kb/s
Channel(s) : 6 channels
Channel layout : L R C LFE Ls Rs
Sampling rate : 48.0 kHz
Frame rate : 31.250 FPS (1536 SPF)
Compression mode : Lossy
Stream size : 299 MiB (20%)
Title : Original | iTunes
Language : Russian
Service kind : Complete Main
Default : Yes
Forced : No
Menu
00:00:00.000 : :Глава 1
00:08:11.791 : :Глава 2
00:16:30.999 : :Глава 3
00:24:54.540 : :Глава 4
00:33:03.998 : :Глава 5
00:41:22.914 : :Глава 6
00:51:20.705 : :Глава 7
00:59:45.746 : :Глава 8
01:08:39.453 : :Глава 9
01:16:51.204 : :Глава 10
01:25:00.495 : :Глава 11
01:33:05.620 : :Глава 12
01:41:39.495 : :Глава 13
Релиз от: & &
piratbit.pw



Скачать Глубже! через торрент https://d.radikal.ru/d37/2012/b2/88d26cf45569.png Скачать фильм Глубже! через торрент бесплантно в хорошем качестве Описание: Молодой режиссер, мастер психологической глубины, попадает в порно-индустрию и заставляет всех играть по своим правилам. ... 10 10 8
Торрент: Зарегистрирован [2020-12-10 09:02] · скачан: 333 раз
Статус: √ проверено
Размер: 1.45 GB
Как cкачать? Как скачать Глубже! через торрент | UTorrent

28-11-2019 20:33  

Отключить всю рекламу на сайте

10-12-2020 10:23 Глубже! Скачать торрент  

полное гpiratbit.pw



15-12-2020 09:45 Глубже! Скачать торрент  

Не зашёл...piratbit.pw



    Дорогой пользователь! Огромная просьба, поблагодарите релизера, оцените раздачу и оставьте свои комментарий, если Вы скачали Глубже! через торрент бесплатно! Внесите свою лепту в развитие PiratBit!
    Комментировать посты могут только пользователи прошедшие не сложную регистрацию
    Показать сообщения:    

    Глубже! через торрент
    Скачать бесплатно Глубже!
    Глубже! скачать торрент
    Глубже! смотреть онлайн
    Cкачать фильм Глубже! бесплатно
    Глубже! скачать торрент в хорошем качестве
    Глубже! смотреть онлайн бесплатно в хорошем качестве


    Вы не можете начинать темы
    Вы не можете отвечать на сообщения
    Вы не можете редактировать свои сообщения
    Вы не можете удалять свои сообщения
    Вы не можете голосовать в опросах
    Вы не можете прикреплять файлы к сообщениям
    Вы можете скачивать файлы