2 сезон

iTunes

WEBRip

1

2 сезон

iTunes

1 сезон

1 сезон

RePack

30

Ultimate

ВАЖНО

ИГРА 18+

pack

RePack

MK11
pack

Легкие деньги

RePack

jed

RePack

fifa19

RePack

RDR2

RePack

NEED FOR SPEED™ PAYBACK

4 сезон

9 сезон

Бесстыжие 9 сезон

Все сериалы

все сериалы на PB.wtf

RePack

FAR CRY 5

Anonymous, добрый вечер, мы не успеваем собрать деньги на оплату серверов за февраль, помогите нам пожалуйста в это трудное время. В качестве благодарности мы отключим Вам всю рекламу на сайте (укажите свой ник в строку Ваше имя)!

×
  
Magnet ссылка

Конференция (Иван И. Твердовский) [2019, драма, WEB-DLRip-AVC] [RUS] [iTunes] piratbit.pw

Конференция через торрент piratbit.pw

Раздают: 1 [ 0 KB/s ]
Размер: 1.45 GB | Добавлен: 3 мес. 3 д. назад | Торрент скачан:49 раз
Скачать  

28-11-2020 21:46 Конференция Скачать торрент  


Конференция
Информация о фильме:
Название: Конференция
Год выхода: 2020
Жанр: Драма
Режиссер: Иван И. Твердовский

В ролях: Наталья Павленкова, Ольга Лапшина, Ксения Зуева, Олег Феоктистов, Ян Цапник, Александр Семчев, Виктория Верберг, Анна Галинова, Наталья Потапова, Игорь Воробьев

Описание: Октябрь 2002 года. Террористы захватили театральный̆ центр на Дубровке. «Норд-Ост» унес жизни, а сотни выживших остались один на один с чудовищными воспоминаниями. Годы спустя Наталья собирает жертв трагедии на вечер памяти и реконструирует события трех дней̆ захвата, чтобы искупить свою вину за ошибку, перечеркнувшую всю ее жизнь. Сумеет ли Наталья заслужить прощение собственной̆ дочери?



Страна: Россия
Студия: ВЕГА Фильм
Продолжительность: 02:09:52
Перевод: Оригинальное | iTunes



Информация о файле:
Кодек: AVC
Формат: MKV
Качество: WEB-DLRip-AVC
Видео: MPEG-4 AVC, 1024x430 (2.40:1), 25.000 fps, 1215 kbps, 0.110
Аудио RU: AC3, 2 ch, 48 kHz, 384 kbps
Навигация по главам: Да

x264 info: frame I:817 Avg QP:16.02 size: 52299
x264 info: frame P:40555 Avg QP:18.97 size: 13546
x264 info: frame B:153426 Avg QP:19.69 size: 3846
General
Unique ID : 89883395639625010001574964383536719137 (0x439EE98D93EB270BCBB10029C1D92521)
Complete name : D:uTorrentРипы_от_wolf1245_MediaBitКонференция (2020) WEB-DLRip-AVC from wolf1245 & MediaBit.mkv
Format : Matroska
Format version : Version 4
File size : 1.45 GiB
Duration : 2 h 9 min
Overall bit rate : 1 600 kb/s
Movie name : Конференция (2020) WEB-DLRip-AVC from wolf1245 & MediaBit
Encoded date : UTC 2020-11-28 21:32:00
Writing application : mkvmerge v51.0.0 ('I Wish') 64-bit
Writing library : libebml v1.4.0 + libmatroska v1.6.2
Cover : Yes
Attachments : cover
Video
ID : 1
Format : AVC
Format/Info : Advanced Video Codec
Format profile : High@L4.1
Format settings : CABAC / 12 Ref Frames
Format settings, CABAC : Yes
Format settings, Reference frames : 12 frames
Codec ID : V_MPEG4/ISO/AVC
Duration : 2 h 9 min
Bit rate : 1 215 kb/s
Width : 1 024 pixels
Height : 430 pixels
Display aspect ratio : 2.40:1
Frame rate mode : Constant
Frame rate : 25.000 FPS
Color space : YUV
Chroma subsampling : 4:2:0
Bit depth : 8 bits
Scan type : Progressive
Bits/(Pixel*Frame) : 0.110
Stream size : 1.10 GiB (76%)
Title : wolf1245 & MediaBit
Writing library : x264 core 157 r2958 57baac4
Encoding settings : cabac=1 / ref=12 / deblock=1:-3:-3 / analyse=0x3:0x133 / me=umh / subme=11 / psy=1 / psy_rd=1.03:0.03 / mixed_ref=1 / me_range=48 / chroma_me=1 / trellis=2 / 8x8dct=1 / cqm=0 / deadzone=21,11 / fast_pskip=0 / chroma_qp_offset=-3 / threads=10 / lookahead_threads=2 / sliced_threads=0 / nr=0 / decimate=0 / interlaced=0 / bluray_compat=0 / constrained_intra=0 / bframes=12 / b_pyramid=2 / b_adapt=2 / b_bias=0 / direct=3 / weightb=1 / open_gop=0 / weightp=2 / keyint=250 / keyint_min=25 / scenecut=40 / intra_refresh=0 / rc_lookahead=100 / rc=2pass / mbtree=0 / bitrate=1215 / ratetol=1.0 / qcomp=0.60 / qpmin=0 / qpmax=69 / qpstep=4 / cplxblur=20.0 / qblur=0.5 / vbv_maxrate=50000 / vbv_bufsize=62500 / nal_hrd=none / filler=0 / ip_ratio=1.40 / pb_ratio=1.30 / aq=1:0.80
Language : English
Default : Yes
Forced : No
Color range : Limited
Color primaries : BT.709
Transfer characteristics : BT.709
Matrix coefficients : BT.709
Audio
ID : 2
Format : AC-3
Format/Info : Audio Coding 3
Commercial name : Dolby Digital
Codec ID : A_AC3
Duration : 2 h 9 min
Bit rate mode : Constant
Bit rate : 384 kb/s
Channel(s) : 6 channels
Channel layout : L R C LFE Ls Rs
Sampling rate : 48.0 kHz
Frame rate : 31.250 FPS (1536 SPF)
Compression mode : Lossy
Stream size : 357 MiB (24%)
Title : iTunes
Language : Russian
Service kind : Complete Main
Default : Yes
Forced : No
Menu
00:00:00.000 : :Глава 1
00:08:11.400 : :Глава 2
00:16:56.720 : :Глава 3
00:25:12.960 : :Глава 4
00:34:25.400 : :Глава 5
00:41:53.519 : :Глава 6
00:50:52.879 : :Глава 7
00:59:36.478 : :Глава 8
01:08:05.517 : :Глава 9
01:16:24.276 : :Глава 10
01:24:54.675 : :Глава 11
01:31:00.754 : :Глава 12
01:38:19.354 : :Глава 13
01:47:52.553 : :Глава 14
01:57:52.513 : :Глава 15
Релиз от: & &
piratbit.pw



Скачать Конференция через торрент https://i114.fastpic.ru/big/2020/1124/55/b307623d20028ae4aa822a00fbaa4555.jpg Скачать фильм Конференция через торрент бесплантно в хорошем качестве Описание: Октябрь 2002 года. Террористы захватили театральный̆ центр на Дубровке. «Норд-Ост» унес жизни, а сотни выживших остались один ... 7.7 10 3
Торрент: Зарегистрирован [2020-11-28 21:46] · скачан: 49 раз
Статус: √ проверено
Размер: 1.45 GB
Как cкачать? Как скачать Конференция через торрент | UTorrent

% Раздел Тема Автор DL S | L
Наши новые фильмы 2020 - 2021 [ 748 MB ] Конференция [2020 WEB-DLRip] bober100 Скачать
1 | 0
Наши новые фильмы 2020 - 2021 [ 2.16 GB ] Конференция [2020 WEB-DLRip] bober100 Скачать
2 | 0
Наши новые фильмы 2020 - 2021 [ 1.46 GB ] Конференция [2020 WEB-DLRip] bober100 Скачать
2 | 0
Наши фильмы (HD, WEB-DL 720p, 1080p) [ 4.1 GB ] Конференция [2020 WEB-DL 720p] bober100 Скачать
3 | 0
Наши фильмы (HD, WEB-DL 720p, 1080p) [ 4.57 GB ] Конференция [2020 WEB-DL 1080p] bober100 Скачать
1 | 0
Политика, религия [ 20.2 GB ] Большая пресс-конференция Президента России Владимира Путина [20.12.2018] [2018 Интервью пресс-конференция HDTV 1080i] Armstrong Скачать
1 | 0
Политика, религия [ 3.07 GB ] Пресс-конференция Президента России Владимира Путина [20.12] [2018 Интервью пресс-конференция WEBRip 720p] bober100 Скачать
1 | 0

28-11-2019 20:33  

Отключить всю рекламу на сайте

    Дорогой пользователь! Огромная просьба, поблагодарите релизера, оцените раздачу и оставьте свои комментарий, если Вы скачали Конференция через торрент бесплатно! Внесите свою лепту в развитие PiratBit!
    Комментировать посты могут только пользователи прошедшие не сложную регистрацию
    Показать сообщения:    

    Конференция через торрент
    Скачать бесплатно Конференция
    Конференция скачать торрент
    Конференция смотреть онлайн
    Cкачать фильм Конференция бесплатно
    Конференция скачать торрент в хорошем качестве
    Конференция смотреть онлайн бесплатно в хорошем качестве


    Вы не можете начинать темы
    Вы не можете отвечать на сообщения
    Вы не можете редактировать свои сообщения
    Вы не можете удалять свои сообщения
    Вы не можете голосовать в опросах
    Вы не можете прикреплять файлы к сообщениям
    Вы можете скачивать файлы