1 сезон

1 сезон

iTunes

1

КиноПоиск HD

Кинопоиск HD

iTunes

13

1 сезон

RePack

30

Новинка

ВАЖНО

ИГРА 18+

pack

RePack

MK11
pack

Легкие деньги

RePack

jed

RePack

fifa19

RePack

RDR2

RePack

NEED FOR SPEED™ PAYBACK

4 сезон

9 сезон

Бесстыжие 9 сезон

Все сериалы

все сериалы на PB.wtf

RePack

FAR CRY 5
  
Magnet ссылка

Давай поиграем / Come Play (Джейкоб Чейз) [2020, Ужасы, WEB-DL 1080p] AVO [А.Дольский] piratbit.pw

Давай поиграем через торрент piratbit.pw

Размер: 5.13 GB | Добавлен: 4 мес. 28 д. назад | Торрент скачан:46 раз
Скачать  

24-11-2020 16:05 Давай поиграем Скачать торрент  

Давай поиграем | Come Play
Год выпуска: 2020
Страна: США
Производство: Amblin Partners, Reliance Entertainment, The Picture Company
Жанр: Ужасы
Продолжительность: 01:36:31
Перевод: Авторский (одноголосый) | А. Дольский
Субтитры: отсутствуют

Режиссер: Джейкоб Чейз

rating

В ролях: Эжи Робертсон, Гиллиан Джейкобс, Джон Галлахер мл., Уинслоу Фегли, Джейден Марин, Гэвин Макивер-Райт, Рэйчел Уилсон, Алана-Эшли Маркес, Далмар Абузейд, Ана Араужо, Эбони Бут, Кейт Фентон, Ишан Моррис

Описание: Аутист Оливер не особо любит проводить время с ровесниками, его лучшие друзья - планшет и телефон. У Ларри тоже нет настоящих друзей, и он очень хочет подружиться с Оливером. И всё бы ничего, но Ларри - злая потусторонняя сущность, которая жаждет пробраться в этот мир с помощью мобильных устройств...

Качество: WEB-DL 1080p
Формат: MKV

Видео: MPEG-4 AVC, 1920x800 (2.40:1), 23.976 fps, 6622 kbps, 0.18 bit/pixel
Аудио#1: русский, AC3 2.0, 48 kHz, 192 kbps
Аудио#2: английский, E-AC3 5.1, 48 kHz, 640 kbps
скриншот  скриншот  скриншот  скриншот  скриншот  

Общее
Уникальный идентификатор : 185991878210842044587039457377838923695 (0x8BECBB968BEC71848BDD89711DA77FAF)
Полное имя : Come.Play.2020.WEBRip.1080p.mkv
Формат : Matroska
Версия формата : Version 4
Размер файла : 5,13 Гбайт
Продолжительность : 1 ч. 36 м.
Режим общего битрейта : Постоянный
Общий поток : 7 606 Кбит/сек
Дата кодирования : UTC 2020-11-21 19:29:18
Программа кодирования : mkvmerge v7.9.0 ('Birds') 64bit
Библиотека кодирования : libebml v1.3.1 + libmatroska v1.4.2

Видео
Идентификатор : 1
Формат : AVC
Формат/Информация : Advanced Video Codec
Профиль формата : High@L4
Настройки формата : CABAC / 4 Ref Frames
Параметр CABAC формата : Да
Параметр RefFrames формата : 4 кадра
Идентификатор кодека : V_MPEG4/ISO/AVC
Продолжительность : 1 ч. 36 м.
Вид битрейта : Постоянный
Битрейт : 6 622 Кбит/сек
Номинальный битрейт : 10 000 Кбит/сек
Ширина : 1 920 пикселей
Высота : 800 пикселей
Соотношение сторон : 2,40:1
Режим частоты кадров : Постоянный
Частота кадров : 23,976 (24000/1001) кадра/сек
Цветовое пространство : YUV
Субдискретизация насыщенности : 4:2:0
Битовая глубина : 8 бит
Тип развёртки : Прогрессивная
Бит/(Пиксели*Кадры) : 0.180
Размер потока : 4,46 Гбайт (87%)
Default : Да
Forced : Нет
Цветовой диапазон : Limited
Основные цвета : BT.709
Характеристики трансфера : BT.709
Коэффициенты матрицы : BT.709
Statistics Tags Issue : mkvmerge v49.0.0 ('Sick Of Losing Soulmates') 64-bit 2020-11-19 12:39:24 / mkvmerge v7.9.0 ('Birds') 64bit 2020-11-21 19:29:18
FromStats_BitRate : 6771378
FromStats_Duration : 01:36:30.994000000
FromStats_FrameCount : 138845
FromStats_StreamSize : 4901626889
Duration_Source : General_Duration

Аудио #1
Идентификатор : 2
Формат : AC-3
Формат/Информация : Audio Coding 3
Коммерческое название : Dolby Digital
Идентификатор кодека : A_AC3
Продолжительность : 1 ч. 36 м.
Вид битрейта : Постоянный
Битрейт : 192 Кбит/сек
Каналы : 2 канала
Channel layout : L R
Частота : 48,0 КГц
Частота кадров : 31,250 кадров/сек (1536 SPF)
Метод сжатия : С потерями
Размер потока : 133 Мбайт (3%)
Язык : Russian
Service kind : Complete Main
Default : Да
Forced : Нет
Duration_Source : General_Duration

Аудио #2
Идентификатор : 3
Формат : E-AC-3
Формат/Информация : Enhanced AC-3
Коммерческое название : Dolby Digital Plus
Идентификатор кодека : A_EAC3
Продолжительность : 1 ч. 36 м.
Вид битрейта : Постоянный
Битрейт : 640 Кбит/сек
Каналы : 6 каналов
Channel layout : L R C LFE Ls Rs
Частота : 48,0 КГц
Частота кадров : 31,250 кадров/сек (1536 SPF)
Метод сжатия : С потерями
Размер потока : 442 Мбайт (8%)
Язык : English
Service kind : Complete Main
Default : Нет
Forced : Нет
Duration_Source : General_Duration

piratbit.pw



Скачать Давай поиграем через торрент https://i3.imageban.ru/out/2020/11/20/ba8bf889a5178996c9d83e97ac8a2537.jpg Скачать фильм Давай поиграем через торрент бесплантно в хорошем качестве Описание: Аутист Оливер не особо любит проводить время с ровесниками, его лучшие друзья - планшет и телефон. У Ларри тоже нет настоящих ... 10 10 4
Торрент: Зарегистрирован [2020-11-24 16:05] · скачан: 46 раз
Статус: √ проверено
Размер: 5.13 GB
Как cкачать? Как скачать Давай поиграем через торрент | UTorrent

% Раздел Тема Автор DL S | L
Фильмы с авторской озвучкой [ 1.45 GB ] Давай поиграем / Come Play [2020 WEB-DLRip-AVC] [AVO] [Андрей Дольский] от MediaBit Lithuania Скачать
1 | 0
Фильмы с авторской озвучкой [ 1.46 GB ] Давай поиграем / Come Play [2020 BDRip] AVO [Андрей Дольский] Twi7ter Скачать
4 | 1

28-11-2019 20:33  

Отключить всю рекламу на сайте

    Дорогой пользователь! Огромная просьба, поблагодарите релизера, оцените раздачу и оставьте свои комментарий, если Вы скачали Давай поиграем через торрент бесплатно! Внесите свою лепту в развитие PiratBit!
    Комментировать посты могут только пользователи прошедшие не сложную регистрацию
    Показать сообщения:    

    Давай поиграем через торрент
    Скачать бесплатно Давай поиграем
    Давай поиграем скачать торрент
    Давай поиграем смотреть онлайн
    Cкачать фильм Давай поиграем бесплатно
    Давай поиграем скачать торрент в хорошем качестве
    Давай поиграем смотреть онлайн бесплатно в хорошем качестве


    Вы не можете начинать темы
    Вы не можете отвечать на сообщения
    Вы не можете редактировать свои сообщения
    Вы не можете удалять свои сообщения
    Вы не можете голосовать в опросах
    Вы не можете прикреплять файлы к сообщениям
    Вы можете скачивать файлы