1 сезон

1 сезон

iTunes

1

КиноПоиск HD

Кинопоиск HD

iTunes

13

1 сезон

RePack

30

Новинка

ВАЖНО

ИГРА 18+

pack

RePack

MK11
pack

Легкие деньги

RePack

jed

RePack

fifa19

RePack

RDR2

RePack

NEED FOR SPEED™ PAYBACK

4 сезон

9 сезон

Бесстыжие 9 сезон

Все сериалы

все сериалы на PB.wtf

RePack

FAR CRY 5
  
Magnet ссылка

Давай поиграем / Come Play (Джейкоб Чейз) [2020, Ужасы, WEB-DLRip-AVC] [AVO] [Андрей Дольский] от MediaBit piratbit.pw

Давай поиграем через торрент piratbit.pw

Размер: 1.45 GB | Добавлен: 4 мес. 28 д. назад | Торрент скачан:18 раз
Скачать  

24-11-2020 15:07 Давай поиграем Скачать торрент  


Давай поиграем / Come Play
Информация о фильме:
Название: Давай поиграем
Оригинальное название: Come Play
Год выхода: 2020
Жанр: Ужасы
Режиссер: Джейкоб Чейз

В ролях: Эжи Робертсон, Гиллиан Джейкобс, Джон Галлахер мл., Уинслоу Фегли, Джейден Марин, Гэвин Макивер-Райт, Рэйчел Уилсон, Алана-Эшли Маркес, Далмар Абузейд, Ана Араужо, Эбони Бут, Кейт Фентон, Ишан Моррис
Описание: Аутист Оливер не особо любит проводить время с ровесниками, его лучшие друзья - планшет и телефон. У Ларри тоже нет настоящих друзей, и он очень хочет подружиться с Оливером. И всё бы ничего, но Ларри - злая потусторонняя сущность, которая жаждет пробраться в этот мир с помощью мобильных устройств...



Страна: США
Студия: Amblin Partners, Reliance Entertainment, The Picture Company
Продолжительность: 01:36:31
Перевод: Авторский (одноголосый, закадровый) - Андрей Дольский



Информация о файле:
Кодек: AVC
Формат: MKV
Качество: WEB-DLRip-AVC
Видео: MPEG-4 AVC, 1024x426 (2.40:1), 23.976 fps, 1512 kbps, 0.145
Аудио RU: AC3, 2 ch, 48 kHz, 192 kbps
Аудио EN: AC3, 6 ch, 48 kHz, 448 kbps

x264 info: frame I:948 Avg QP:13.00 size: 55324
x264 info: frame P:32271 Avg QP:16.24 size: 16663
x264 info: frame B:105625 Avg QP:18.28 size: 4771
x264 info: consecutive B-frames: 2.7% 3.2% 7.8% 34.0% 12.9% 24.5% 5.7% 5.7% 1.1% 0.7% 0.5% 0.5% 0.6%
General
Unique ID : 69367652586930610045928371263363650845 (0x342FB953678EE078A2DDC1BEA44C951D)
Complete name : D:uTorrentРипы_от_wolf1245_MediaBitCome Play (2020) WEB-DLRip-AVC from wolf1245 & MediaBit.mkv
Format : Matroska
Format version : Version 4
File size : 1.45 GiB
Duration : 1 h 36 min
Overall bit rate : 2 153 kb/s
Movie name : Come Play (2020) WEB-DLRip-AVC from wolf1245 & MediaBit
Encoded date : UTC 2020-11-23 18:17:26
Writing application : mkvmerge v51.0.0 ('I Wish') 64-bit
Writing library : libebml v1.4.0 + libmatroska v1.6.2
Video
ID : 1
Format : AVC
Format/Info : Advanced Video Codec
Format profile : High@L4.1
Format settings : CABAC / 12 Ref Frames
Format settings, CABAC : Yes
Format settings, Reference frames : 12 frames
Codec ID : V_MPEG4/ISO/AVC
Duration : 1 h 36 min
Bit rate : 1 512 kb/s
Width : 1 024 pixels
Height : 426 pixels
Display aspect ratio : 2.40:1
Frame rate mode : Constant
Frame rate : 23.976 (24000/1001) FPS
Color space : YUV
Chroma subsampling : 4:2:0
Bit depth : 8 bits
Scan type : Progressive
Bits/(Pixel*Frame) : 0.145
Stream size : 1.02 GiB (70%)
Title : wolf1245 & MediaBit
Writing library : x264 core 161 r3020 d198931
Encoding settings : cabac=1 / ref=12 / deblock=1:-3:-3 / analyse=0x3:0x133 / me=umh / subme=11 / psy=1 / psy_rd=1.03:0.03 / mixed_ref=1 / me_range=48 / chroma_me=1 / trellis=2 / 8x8dct=1 / cqm=0 / deadzone=21,11 / fast_pskip=0 / chroma_qp_offset=-3 / threads=10 / lookahead_threads=2 / sliced_threads=0 / nr=0 / decimate=0 / interlaced=0 / bluray_compat=0 / constrained_intra=0 / bframes=12 / b_pyramid=2 / b_adapt=2 / b_bias=0 / direct=3 / weightb=1 / open_gop=0 / weightp=2 / keyint=240 / keyint_min=24 / scenecut=40 / intra_refresh=0 / rc_lookahead=100 / rc=2pass / mbtree=0 / bitrate=1512 / ratetol=1.0 / qcomp=0.60 / qpmin=0 / qpmax=69 / qpstep=4 / cplxblur=20.0 / qblur=0.5 / vbv_maxrate=50000 / vbv_bufsize=62500 / nal_hrd=none / filler=0 / ip_ratio=1.40 / pb_ratio=1.30 / aq=2:0.80
Language : English
Default : Yes
Forced : No
Color range : Limited
Color primaries : BT.709
Transfer characteristics : BT.709
Matrix coefficients : BT.709
Audio #1
ID : 2
Format : AC-3
Format/Info : Audio Coding 3
Commercial name : Dolby Digital
Codec ID : A_AC3
Duration : 1 h 36 min
Bit rate mode : Constant
Bit rate : 192 kb/s
Channel(s) : 2 channels
Channel layout : L R
Sampling rate : 48.0 kHz
Frame rate : 31.250 FPS (1536 SPF)
Compression mode : Lossy
Stream size : 133 MiB (9%)
Title : AVO | Андрей Дольский
Language : Russian
Service kind : Complete Main
Default : Yes
Forced : No
Audio #2
ID : 3
Format : AC-3
Format/Info : Audio Coding 3
Commercial name : Dolby Digital
Codec ID : A_AC3
Duration : 1 h 36 min
Bit rate mode : Constant
Bit rate : 448 kb/s
Channel(s) : 6 channels
Channel layout : L R C LFE Ls Rs
Sampling rate : 48.0 kHz
Frame rate : 31.250 FPS (1536 SPF)
Compression mode : Lossy
Stream size : 309 MiB (21%)
Title : ORIGINAL
Language : English
Service kind : Complete Main
Default : No
Forced : No
Релиз от: & &
piratbit.pw



Скачать Давай поиграем через торрент https://c.radikal.ru/c11/2011/f9/f62c8065de41.png Скачать фильм Давай поиграем через торрент бесплантно в хорошем качестве Описание: Аутист Оливер не особо любит проводить время с ровесниками, его лучшие друзья - планшет и телефон. У Ларри тоже нет настоящих ... 10 10 2
Торрент: Зарегистрирован [2020-11-24 15:07] · скачан: 18 раз
Статус: √ проверено
Размер: 1.45 GB
Как cкачать? Как скачать Давай поиграем через торрент | UTorrent

28-11-2019 20:33  

Отключить всю рекламу на сайте


    Дорогой пользователь! Огромная просьба, поблагодарите релизера, оцените раздачу и оставьте свои комментарий, если Вы скачали Давай поиграем через торрент бесплатно! Внесите свою лепту в развитие PiratBit!
    Комментировать посты могут только пользователи прошедшие не сложную регистрацию
    Показать сообщения:    

    Давай поиграем через торрент
    Скачать бесплатно Давай поиграем
    Давай поиграем скачать торрент
    Давай поиграем смотреть онлайн
    Cкачать фильм Давай поиграем бесплатно
    Давай поиграем скачать торрент в хорошем качестве
    Давай поиграем смотреть онлайн бесплатно в хорошем качестве


    Вы не можете начинать темы
    Вы не можете отвечать на сообщения
    Вы не можете редактировать свои сообщения
    Вы не можете удалять свои сообщения
    Вы не можете голосовать в опросах
    Вы не можете прикреплять файлы к сообщениям
    Вы можете скачивать файлы