Ссылка на приватное зеркало нашего сайта всего за 1$. Внимание количество ограничено!!!

2 сезон

iTunes

1 сезон

1

2 сезон

2 сезон

iTunes

1 сезон

RePack

30

Ultimate

ВАЖНО

ИГРА 18+

pack

RePack

MK11
pack

Забери бонус

RePack

jed

!!Акция!!

Alien_Rage

RePack

fifa19

RePack

Assassins Creed: Odyssey

RePack

NEED FOR SPEED™ PAYBACK

4 сезон

9 сезон

Бесстыжие 9 сезон

Все сериалы

все сериалы на PB.wtf

RePack

FAR CRY 5
  

Лучшие годы / Gli anni più belli / The Best Years (Габриэле Муччино) [2020, Драма, HDRip-AVC ] [DUB] [ iTunes] piratbit.pw

Лучшие годы через торрент piratbit.pw

Раздают: 1 [ 0 KB/s ]
Размер: 1.45 GB | Добавлен: 8 д. назад | Торрент скачан:14 раз
Скачать  

22-11-2020 17:01 Лучшие годы Скачать торрент  



Информация о фильме:
Название: Лучшие годы
Оригинальное название: Gli anni più belli / The Best Years
Год выхода: 2020
Жанр: Драма
Режиссер: Габриэле Муччино
В ролях: Пьерфранческо Фавино, Микаэла Рамаццотти, Ким Росси Стюарт, Клаудио Сантамария, Николетта Романофф, Эмма Марроне, Альма Ноче, Франческо Чентораме, Андреа Питторино, Маттео Де Буоно

Описание: История трёх друзей, Паоло, Риккардо, Джулио, и девушки Паоло, Джеммы, рассказанная в течение сорока лет, с 1980 года до наших дней. Паоло получает степень в области литературы и начинает преподавать. Джулио становится успешным адвокатом и меняет свои идеалистические взгляда на богатство и славу. Риккардо меняет профессии в поисках себя – от актёра до журналиста. Джемма уезжает в Неаполь, чтобы в итоге вернуться обратно в Рим к Паоло. Но вскоре Джемма начинает роман с Джулио...



Страна: Италия
Студия: Lotus Production, Rai Cinema, 3 Marys Entertainment
Продолжительность: 02:14:20
Перевод: Дублированный - iTunes



Информация о файле:
Кодек: AVC
Формат: MKV
Качество: HDRip-AVC
Видео: MPEG-4 AVC, 1024x428 (2.40:1), 24.000 fps, 1162 kbps, 0.110
Аудио RU: AC3, 6 ch, 48 kHz, 384 kbps
Навигация по главам: Да

General
Unique ID : 85032897030129271622657343570588430013 (0x3FF8BD81FEFCDBD1EF3B55B195A76EBD)
Complete name : D:\uTorrent\Рипы_от_wolf1245_MediaBit\The Best Years 2020 HDRip-AVC from wolf1245 & MediaBit.mkv
Format : Matroska
Format version : Version 4
File size : 1.45 GiB
Duration : 2 h 14 min
Overall bit rate : 1 547 kb/s
Movie name : Gli anni più belli / The Best Years 2020 HDRip-AVC from wolf1245 & MediaBit
Encoded date : UTC 2020-11-22 16:42:13
Writing application : mkvmerge v51.0.0 ('I Wish') 64-bit
Writing library : libebml v1.4.0 + libmatroska v1.6.2

Video
ID : 1
Format : AVC
Format/Info : Advanced Video Codec
Format profile : High@L4.1
Format settings : CABAC / 12 Ref Frames
Format settings, CABAC : Yes
Format settings, Reference frames : 12 frames
Codec ID : V_MPEG4/ISO/AVC
Duration : 2 h 14 min
Bit rate : 1 162 kb/s
Width : 1 024 pixels
Height : 428 pixels
Display aspect ratio : 2.40:1
Frame rate mode : Constant
Frame rate : 24.000 FPS
Color space : YUV
Chroma subsampling : 4:2:0
Bit depth : 8 bits
Scan type : Progressive
Bits/(Pixel*Frame) : 0.110
Stream size : 1.09 GiB (75%)
Title : wolf1245 & MediaBit
Writing library : x264 core 157 r2958 57baac4
Encoding settings : cabac=1 / ref=12 / deblock=1:-3:-2 / analyse=0x3:0x133 / me=umh / subme=11 / psy=1 / psy_rd=1.03:0.03 / mixed_ref=1 / me_range=48 / chroma_me=1 / trellis=2 / 8x8dct=1 / cqm=0 / deadzone=21,11 / fast_pskip=0 / chroma_qp_offset=-3 / threads=10 / lookahead_threads=2 / sliced_threads=0 / nr=0 / decimate=0 / interlaced=0 / bluray_compat=0 / constrained_intra=0 / bframes=12 / b_pyramid=2 / b_adapt=2 / b_bias=0 / direct=3 / weightb=1 / open_gop=0 / weightp=2 / keyint=240 / keyint_min=24 / scenecut=40 / intra_refresh=0 / rc_lookahead=100 / rc=2pass / mbtree=0 / bitrate=1162 / ratetol=1.0 / qcomp=0.60 / qpmin=0 / qpmax=69 / qpstep=4 / cplxblur=20.0 / qblur=0.5 / vbv_maxrate=50000 / vbv_bufsize=62500 / nal_hrd=none / filler=0 / ip_ratio=1.40 / pb_ratio=1.30 / aq=2:0.80
Language : Italian
Default : Yes
Forced : No
Color range : Limited
Color primaries : BT.709
Transfer characteristics : BT.709
Matrix coefficients : BT.709

Audio
ID : 2
Format : AC-3
Format/Info : Audio Coding 3
Commercial name : Dolby Digital
Codec ID : A_AC3
Duration : 2 h 14 min
Bit rate mode : Constant
Bit rate : 384 kb/s
Channel(s) : 6 channels
Channel layout : L R C LFE Ls Rs
Sampling rate : 48.0 kHz
Frame rate : 31.250 FPS (1536 SPF)
Compression mode : Lossy
Stream size : 369 MiB (25%)
Title : DUB | iTunes
Language : Russian
Service kind : Complete Main
Default : Yes
Forced : No

Menu
00:00:00.000 : :Глава 01
00:10:34.458 : :Глава 02
00:21:15.292 : :Глава 03
00:33:22.958 : :Глава 04
00:44:13.250 : :Глава 05
00:56:30.958 : :Глава 06
01:09:18.332 : :Глава 07
01:19:48.208 : :Глава 08
01:30:21.458 : :Глава 09
01:42:52.667 : :Глава 10
01:52:32.167 : :Глава 11
02:04:28.375 : :Глава 12
Релиз от: & &
piratbit.pw



Скачать Лучшие годы через торрент https://d.radikal.ru/d36/2011/c3/6f84724c944d.jpg Скачать фильм Лучшие годы через торрент бесплантно в хорошем качестве Описание: История трёх друзей, Паоло, Риккардо, Джулио, и девушки Паоло, Джеммы, рассказанная в течение сорока лет, с 1980 года до наших ... 10 10 1
Торрент: Зарегистрирован [2020-11-22 17:01] · скачан: 14 раз
Статус: √ проверено
Размер: 1.45 GB
Как cкачать? Как скачать Лучшие годы через торрент | qTorrent

% Раздел Тема Автор DL S | L
Фильмы 2019-2020 [DVDrip, WEB-DLRip, HDrip] (DUB, MVO) [ 2.12 GB ] Лучшие годы / Gli anni più belli / The Best Years [2020 BDRip] - Twi7ter Скачать
17 | 4
Фильмы 2019-2020 [DVDrip, WEB-DLRip, HDrip] (DUB, MVO) [ 1.46 GB ] Лучшие годы / Gli anni più belli / The Best Years [2020 BDRip] - Twi7ter Скачать
15 | 6
Фильмы 2019-2020 [DVDrip, WEB-DLRip, HDrip] (DUB, MVO) [ 2.12 GB ] Лучшие годы / Gli anni più belli / The Best Years [2020 BDRip] bober100 Скачать
3 | 0
Фильмы 2019-2020 [DVDrip, WEB-DLRip, HDrip] (DUB, MVO) [ 1.46 GB ] Лучшие годы / Gli anni più belli / The Best Years [2020 BDRip] bober100 Скачать
2 | 0
Фильмы [HD 720p, 1080p] (Хороший звук DUB, MVO) [ 6.58 GB ] Лучшие годы / Gli anni più belli / The Best Years [2020 BDRip 720p] bober100 Скачать
2 | 0
Фильмы [HD 720p, 1080p] (Хороший звук DUB, MVO) [ 12.69 GB ] Лучшие годы / Gli anni più belli / The Best Years [2020 BDRip 1080p] bober100 Скачать
3 | 1
Фильмы (Blu-ray, BD-Remux, HDDVD) [ 32.39 GB ] Лучшие годы / Gli anni più belli / The Best Years [2020 BD Remux 1080p] bober100 Скачать
1 | 0

28-11-2019 20:33  

Отключить всю рекламу на сайте

    Дорогой пользователь! Огромная просьба, поблагодарите релизера, оцените раздачу и оставьте свои комментарий, если Вы скачали Лучшие годы через торрент бесплатно! Внесите свою лепту в развитие PiratBit!
    Комментировать посты могут только пользователи прошедшие не сложную регистрацию
    Показать сообщения:    

    Лучшие годы через торрент
    Скачать бесплатно Лучшие годы
    Лучшие годы скачать торрент
    Лучшие годы смотреть онлайн
    Cкачать фильм Лучшие годы бесплатно
    Лучшие годы скачать торрент в хорошем качестве
    Лучшие годы смотреть онлайн бесплатно в хорошем качестве


    Вы не можете начинать темы
    Вы не можете отвечать на сообщения
    Вы не можете редактировать свои сообщения
    Вы не можете удалять свои сообщения
    Вы не можете голосовать в опросах
    Вы не можете прикреплять файлы к сообщениям
    Вы можете скачивать файлы