Ссылка на приватное зеркало нашего сайта всего за 1$. Внимание количество ограничено!!!

2 сезон

iTunes

1 сезон

1

2 сезон

2 сезон

iTunes

1 сезон

RePack

30

Ultimate

ВАЖНО

ИГРА 18+

pack

RePack

MK11
pack

Забери бонус

RePack

jed

!!Акция!!

Alien_Rage

RePack

fifa19

RePack

Assassins Creed: Odyssey

RePack

NEED FOR SPEED™ PAYBACK

4 сезон

9 сезон

Бесстыжие 9 сезон

Все сериалы

все сериалы на PB.wtf

RePack

FAR CRY 5
  

Стендапер по жизни / Standing Up, Falling Down (Мэтт Рэтнер) [2019, Драма, комедия, WEB-DLRip-AVC] [DUB] [iTunes] от MediaBit piratbit.pw

Стендапер по жизни через торрент piratbit.pw

Раздают: 1 [ 0 KB/s ]
Размер: 1.45 GB | Добавлен: 11 д. назад | Торрент скачан:45 раз
Скачать  

19-11-2020 18:12 Стендапер по жизни Скачать торрент  



Стендапер по жизни / Standing Up, Falling Down


Информация о фильме:
Название: Стендапер по жизни
Оригинальное название: Standing Up, Falling Down
Год выхода: 2019
Жанр: Драма, комедия
Режиссер: Мэтт Рэтнер
В ролях: Билли Кристал, Бен Шварц, Грэйс Гаммер, Элоиза Мамфорд, Джон Белманн, Дэвид Кастанеда, Кевин Данн, Дебра Монк, Нэйт Корддри, Кэйтлин МакГи

Описание: Не сумев добиться успеха в Лос-Анджелесе, немолодой комик вынужден вернуться домой на Лонг-Айленд. По воле случая он знакомится с обаятельным, но пьющим дерматологом, тоже переживающим жизненный кризис. Найдя друг в друге отдушину, они начинают вместе карабкаться наверх…



Страна: США
Студия: Face Productions, Mangano Movies & Media, Particular Crowd, Tilted Windmill Productions, Whitewater Films
Продолжительность: 01:31:17
Перевод: Профессиональный (полное дублирование) - iTunes



Информация о файле:
Кодек: AVC
Формат: MKV
Качество: WEB-DLRip-AVC
Видео: MPEG-4 AVC, 1024x512 (2.000), 23.976 fps, 1443 kbps, 0.115
Аудио RU: AC3, 6 ch, 48 kHz, 384 kbps
Аудио EN: AC3, 6 ch, 48 kHz, 448 kbps
Субтитры: Русские (Full), английские

x264 info: frame I:1174 Avg QP:14.10 size: 65894
x264 info: frame P:28500 Avg QP:17.68 size: 16558
x264 info: frame B:101595 Avg QP:19.76 size: 4304
x264 info: consecutive B-frames: 1.7% 2.0% 6.1% 34.1% 15.1% 27.8% 5.8% 4.7% 1.0% 0.5% 0.5% 0.4% 0.4%
General
Unique ID : 196747466346642035257344278760137085154 (0x94042F066F378E852D500D339EF2D0E2)
Complete name : D:\uTorrent\Рипы_от_wolf1245_MediaBit\Standing Up Falling Down 2019 WEB-DLRip-AVC from wolf1245 & MediaBit.mkv
Format : Matroska
Format version : Version 4
File size : 1.45 GiB
Duration : 1 h 31 min
Overall bit rate : 2 275 kb/s
Movie name : Standing Up Falling Down 2019 WEB-DLRip-AVC from wolf1245 & MediaBit
Encoded date : UTC 2020-11-19 18:03:44
Writing application : mkvmerge v51.0.0 ('I Wish') 64-bit
Writing library : libebml v1.4.0 + libmatroska v1.6.2

Video
ID : 1
Format : AVC
Format/Info : Advanced Video Codec
Format profile : High@L4.1
Format settings : CABAC / 12 Ref Frames
Format settings, CABAC : Yes
Format settings, Reference frames : 12 frames
Codec ID : V_MPEG4/ISO/AVC
Duration : 1 h 31 min
Bit rate : 1 443 kb/s
Width : 1 024 pixels
Height : 512 pixels
Display aspect ratio : 2.000
Frame rate mode : Constant
Frame rate : 23.976 (24000/1001) FPS
Color space : YUV
Chroma subsampling : 4:2:0
Bit depth : 8 bits
Scan type : Progressive
Bits/(Pixel*Frame) : 0.115
Stream size : 941 MiB (63%)
Title : wolf1245 & MediaBit
Writing library : x264 core 157 r2958 57baac4
Encoding settings : cabac=1 / ref=12 / deblock=1:-3:-2 / analyse=0x3:0x133 / me=umh / subme=11 / psy=1 / psy_rd=1.03:0.03 / mixed_ref=1 / me_range=48 / chroma_me=1 / trellis=2 / 8x8dct=1 / cqm=0 / deadzone=21,11 / fast_pskip=0 / chroma_qp_offset=-3 / threads=10 / lookahead_threads=2 / sliced_threads=0 / nr=0 / decimate=0 / interlaced=0 / bluray_compat=0 / constrained_intra=0 / bframes=12 / b_pyramid=2 / b_adapt=2 / b_bias=0 / direct=3 / weightb=1 / open_gop=0 / weightp=2 / keyint=240 / keyint_min=24 / scenecut=40 / intra_refresh=0 / rc_lookahead=100 / rc=2pass / mbtree=0 / bitrate=1443 / ratetol=1.0 / qcomp=0.60 / qpmin=0 / qpmax=69 / qpstep=4 / cplxblur=20.0 / qblur=0.5 / vbv_maxrate=50000 / vbv_bufsize=62500 / nal_hrd=none / filler=0 / ip_ratio=1.40 / pb_ratio=1.30 / aq=2:0.80
Language : English
Default : Yes
Forced : No
Color range : Limited
Color primaries : BT.709
Transfer characteristics : BT.709
Matrix coefficients : BT.709

Audio #1
ID : 2
Format : AC-3
Format/Info : Audio Coding 3
Commercial name : Dolby Digital
Codec ID : A_AC3
Duration : 1 h 31 min
Bit rate mode : Constant
Bit rate : 384 kb/s
Channel(s) : 6 channels
Channel layout : L R C LFE Ls Rs
Sampling rate : 48.0 kHz
Frame rate : 31.250 FPS (1536 SPF)
Compression mode : Lossy
Stream size : 251 MiB (17%)
Title : DUB | iTunes
Language : Russian
Service kind : Complete Main
Default : Yes
Forced : No

Audio #2
ID : 3
Format : AC-3
Format/Info : Audio Coding 3
Commercial name : Dolby Digital
Codec ID : A_AC3
Duration : 1 h 31 min
Bit rate mode : Constant
Bit rate : 448 kb/s
Channel(s) : 6 channels
Channel layout : L R C LFE Ls Rs
Sampling rate : 48.0 kHz
Frame rate : 31.250 FPS (1536 SPF)
Compression mode : Lossy
Stream size : 292 MiB (20%)
Title : Original
Language : English
Service kind : Complete Main
Default : No
Forced : No

Text #1
ID : 4
Format : UTF-8
Codec ID : S_TEXT/UTF8
Codec ID/Info : UTF-8 Plain Text
Duration : 1 h 27 min
Bit rate : 139 b/s
Count of elements : 1977
Stream size : 89.2 KiB (0%)
Title : Full
Language : Russian
Default : No
Forced : No

Text #2
ID : 5
Format : UTF-8
Codec ID : S_TEXT/UTF8
Codec ID/Info : UTF-8 Plain Text
Duration : 1 h 30 min
Bit rate : 92 b/s
Count of elements : 2078
Stream size : 61.2 KiB (0%)
Title : Full
Language : English
Default : No
Forced : No

Text #3
ID : 6
Format : UTF-8
Codec ID : S_TEXT/UTF8
Codec ID/Info : UTF-8 Plain Text
Duration : 1 h 30 min
Bit rate : 94 b/s
Count of elements : 2165
Stream size : 63.1 KiB (0%)
Title : SDH
Language : English
Default : No
Forced : No
Релиз от: & &
piratbit.pw



Скачать Стендапер по жизни через торрент https://i114.fastpic.ru/big/2020/1119/44/145d6563345d3be7687c02c9952e0444.jpg Скачать фильм Стендапер по жизни через торрент бесплантно в хорошем качестве Описание: Не сумев добиться успеха в Лос-Анджелесе, немолодой комик вынужден вернуться домой на Лонг-Айленд. По воле случая он знакомится ... 10 10 4
Торрент: Зарегистрирован [2020-11-19 18:12] · скачан: 45 раз
Статус: √ проверено
Размер: 1.45 GB
Как cкачать? Как скачать Стендапер по жизни через торрент | qTorrent

28-11-2019 20:33  

Отключить всю рекламу на сайте

    Дорогой пользователь! Огромная просьба, поблагодарите релизера, оцените раздачу и оставьте свои комментарий, если Вы скачали Стендапер по жизни через торрент бесплатно! Внесите свою лепту в развитие PiratBit!
    Комментировать посты могут только пользователи прошедшие не сложную регистрацию
    Показать сообщения:    

    Стендапер по жизни через торрент
    Скачать бесплатно Стендапер по жизни
    Стендапер по жизни скачать торрент
    Стендапер по жизни смотреть онлайн
    Cкачать фильм Стендапер по жизни бесплатно
    Стендапер по жизни скачать торрент в хорошем качестве
    Стендапер по жизни смотреть онлайн бесплатно в хорошем качестве


    Вы не можете начинать темы
    Вы не можете отвечать на сообщения
    Вы не можете редактировать свои сообщения
    Вы не можете удалять свои сообщения
    Вы не можете голосовать в опросах
    Вы не можете прикреплять файлы к сообщениям
    Вы можете скачивать файлы