Ссылка на приватное зеркало нашего сайта всего за 1$. Внимание количество ограничено!!!

2 сезон

iTunes

1 сезон

1

2 сезон

2 сезон

iTunes

1 сезон

RePack

30

Ultimate

ВАЖНО

ИГРА 18+

pack

RePack

MK11
pack

Забери бонус

RePack

jed

!!Акция!!

Alien_Rage

RePack

fifa19

RePack

Assassins Creed: Odyssey

RePack

NEED FOR SPEED™ PAYBACK

4 сезон

9 сезон

Бесстыжие 9 сезон

Все сериалы

все сериалы на PB.wtf

RePack

FAR CRY 5
  

Подарки с неба / Операция Рождество / Operation Christmas Drop (Мартин Вуд) [2020, Мелодрама, комедия, семейный, WEB-DLRip-AVC] [MVO] [NewStudio] от MediaBit piratbit.pw

Подарки с неба через торрент piratbit.pw

Раздают: 4 [ 54 KB/s ]
Размер: 1.45 GB | Добавлен: 7 д. назад | Торрент скачан:62 раза
Скачать  

18-11-2020 18:02 Подарки с неба Скачать торрент  


Подарки с неба / Операция Рождество / Operation Christmas Drop
Информация о фильме:
Название: Подарки с неба / Операция Рождество
Оригинальное название: Operation Christmas Drop
Год выхода: 2020
Жанр: Мелодрама, комедия, семейный
Режиссер: Мартин Вуд
В ролях: Александр Людвиг, Вирджиния Мэдсен, Кэт Грэхэм, Аарон Дуглас, Треццо Махоро, Ализа Веллани, Роэн Кэмпбелл, Бетани Браун, Джефф Джозеф, Джанет Киддер

Описание: Помощник Конгрессмена по имени Эрика Миллер направляется в сторону Тихого Океана на Военную Базу Соединенных Штатов Америки, чтобы её в конечном итоге закрыть. Она ищет необходимые для этого основания, но встречает капитана, в которого влюбляется до глубины души.



Страна: США
Студия: Netflix Studios
Продолжительность: 01:36:30
Перевод: Профессиональный (многоголосый, закадровый) - NewStudio



Информация о файле:
Кодек: AVC
Формат: MKV
Качество: WEB-DLRip-AVC
Видео: MPEG-4 AVC, 1024x576 (16:9), 23.976 fps, 1256 kb/s, 0.089
Аудио RU: AC3, 6 ch, 48 kHz, 448 kbps
Аудио EN: AC3, 6 ch, 48 kHz, 448 kbps
Субтитры: Русские, английские
Навигация по главам: Нет

General
Unique ID : 37162170495447167497190892269378280947 (0x1BF52C774FF00A3B3AA89E415D2D1DF3)
Complete name : D:uTorrentРипы_от_wolf1245_MediaBitOperation Christmas Drop (2020) WEB-DLRip-AVC from wolf1245 & MediaBit.mkv
Format : Matroska
Format version : Version 4
File size : 1.45 GiB
Duration : 1 h 36 min
Overall bit rate : 2 151 kb/s
Movie name : Operation Christmas Drop (2020) WEB-DLRip-AVC from wolf1245 & MediaBit
Encoded date : UTC 2020-11-18 17:45:15
Writing application : mkvmerge v51.0.0 ('I Wish') 64-bit
Writing library : libebml v1.4.0 + libmatroska v1.6.2
Video
ID : 1
Format : AVC
Format/Info : Advanced Video Codec
Format profile : High@L4.1
Format settings : CABAC / 12 Ref Frames
Format settings, CABAC : Yes
Format settings, Reference frames : 12 frames
Codec ID : V_MPEG4/ISO/AVC
Duration : 1 h 36 min
Bit rate : 1 256 kb/s
Width : 1 024 pixels
Height : 576 pixels
Display aspect ratio : 16:9
Frame rate mode : Constant
Frame rate : 23.976 (24000/1001) FPS
Color space : YUV
Chroma subsampling : 4:2:0
Bit depth : 8 bits
Scan type : Progressive
Bits/(Pixel*Frame) : 0.089
Stream size : 865 MiB (58%)
Title : wolf1245 & MediaBit
Writing library : x264 core 157 r2958 57baac4
Encoding settings : cabac=1 / ref=12 / deblock=1:-3:-2 / analyse=0x3:0x133 / me=umh / subme=11 / psy=1 / psy_rd=1.03:0.03 / mixed_ref=1 / me_range=48 / chroma_me=1 / trellis=2 / 8x8dct=1 / cqm=0 / deadzone=21,11 / fast_pskip=0 / chroma_qp_offset=-3 / threads=10 / lookahead_threads=2 / sliced_threads=0 / nr=0 / decimate=0 / interlaced=0 / bluray_compat=0 / constrained_intra=0 / bframes=12 / b_pyramid=2 / b_adapt=2 / b_bias=0 / direct=3 / weightb=1 / open_gop=0 / weightp=2 / keyint=240 / keyint_min=24 / scenecut=40 / intra_refresh=0 / rc_lookahead=100 / rc=2pass / mbtree=0 / bitrate=1256 / ratetol=1.0 / qcomp=0.60 / qpmin=0 / qpmax=69 / qpstep=4 / cplxblur=20.0 / qblur=0.5 / vbv_maxrate=50000 / vbv_bufsize=62500 / nal_hrd=none / filler=0 / ip_ratio=1.40 / pb_ratio=1.30 / aq=2:0.80
Language : English
Default : Yes
Forced : No
Audio #1
ID : 2
Format : AC-3
Format/Info : Audio Coding 3
Commercial name : Dolby Digital
Codec ID : A_AC3
Duration : 1 h 36 min
Bit rate mode : Constant
Bit rate : 448 kb/s
Channel(s) : 6 channels
Channel layout : L R C LFE Ls Rs
Sampling rate : 48.0 kHz
Frame rate : 31.250 FPS (1536 SPF)
Compression mode : Lossy
Stream size : 309 MiB (21%)
Title : MVO | NewStudio
Language : English
Service kind : Complete Main
Default : Yes
Forced : No
Audio #2
ID : 3
Format : AC-3
Format/Info : Audio Coding 3
Commercial name : Dolby Digital
Codec ID : A_AC3
Duration : 1 h 36 min
Bit rate mode : Constant
Bit rate : 448 kb/s
Channel(s) : 6 channels
Channel layout : L R C LFE Ls Rs
Sampling rate : 48.0 kHz
Frame rate : 31.250 FPS (1536 SPF)
Compression mode : Lossy
Stream size : 309 MiB (21%)
Title : Original
Language : English
Service kind : Complete Main
Default : No
Forced : No
Text #1
ID : 4
Format : UTF-8
Codec ID : S_TEXT/UTF8
Codec ID/Info : UTF-8 Plain Text
Duration : 1 h 34 min
Bit rate : 117 b/s
Count of elements : 1360
Stream size : 81.5 KiB (0%)
Title : Russian
Language : Russian
Default : No
Forced : No
Text #2
ID : 5
Format : UTF-8
Codec ID : S_TEXT/UTF8
Codec ID/Info : UTF-8 Plain Text
Duration : 1 h 30 min
Bit rate : 96 b/s
Count of elements : 1658
Stream size : 64.2 KiB (0%)
Title : English [SDH]
Language : English
Default : No
Forced : No
Релиз от: & &
piratbit.pw



Скачать Подарки с неба через торрент https://b.radikal.ru/b35/2011/df/044e5ee02b76.jpg Скачать фильм Подарки с неба через торрент бесплантно в хорошем качестве Описание: Помощник Конгрессмена по имени Эрика Миллер направляется в сторону Тихого Океана на Военную Базу Соединенных Штатов Америки, ... 10 10 2
Торрент: Зарегистрирован [2020-11-18 18:02] · скачан: 62 раз
Статус: √ проверено
Размер: 1.45 GB
Как cкачать? Как скачать Подарки с неба через торрент | qTorrent

28-11-2019 20:33  

Отключить всю рекламу на сайте

    Дорогой пользователь! Огромная просьба, поблагодарите релизера, оцените раздачу и оставьте свои комментарий, если Вы скачали Подарки с неба через торрент бесплатно! Внесите свою лепту в развитие PiratBit!
    Комментировать посты могут только пользователи прошедшие не сложную регистрацию
    Показать сообщения:    

    Подарки с неба через торрент
    Скачать бесплатно Подарки с неба
    Подарки с неба скачать торрент
    Подарки с неба смотреть онлайн
    Cкачать фильм Подарки с неба бесплатно
    Подарки с неба скачать торрент в хорошем качестве
    Подарки с неба смотреть онлайн бесплатно в хорошем качестве


    Вы не можете начинать темы
    Вы не можете отвечать на сообщения
    Вы не можете редактировать свои сообщения
    Вы не можете удалять свои сообщения
    Вы не можете голосовать в опросах
    Вы не можете прикреплять файлы к сообщениям
    Вы можете скачивать файлы