Ссылка на приватное зеркало нашего сайта всего за 1$. Внимание количество ограничено!!!

2 сезон

iTunes

1 сезон

1

2 сезон

2 сезон

iTunes

1 сезон

RePack

30

Новинка

ВАЖНО

ИГРА 18+

pack

RePack

MK11
pack

Забери бонус

RePack

jed

!!Акция!!

Alien_Rage

RePack

fifa19

RePack

Assassins Creed: Odyssey

RePack

NEED FOR SPEED™ PAYBACK

4 сезон

9 сезон

Бесстыжие 9 сезон

Все сериалы

все сериалы на PB.wtf

RePack

FAR CRY 5
  

Грекзит / Adults in the Room (Коста-Гаврас) [2019 г., драма, HDRip-AVC] [MVO] [iTunes] от MediaBit piratbit.pw

Грекзит через торрент piratbit.pw

Раздают: 1 [ 0 KB/s ]
Размер: 1.45 GB | Добавлен: 9 д. назад | Торрент скачан:7 раз
Скачать  

14-11-2020 21:38 Грекзит Скачать торрент  


Грекзит / Adults in the Room
Информация о фильме:
Название: Грекзит
Оригинальное название: Adults in the Room
Год выхода: 2019
Жанр: драма
Режиссер: Коста-Гаврас
В ролях: Кристос Лулис, Александрос Бурдумис, Ульрих Тукур, Даан Шуурманс, Кристос Стергиоглоу, Димитрис Тарлу, Жозиан Пинсон, Корнелиус Обонья, Венсан Немет, Орельен Рекуан

Описание: Сюжет фильма раскрывает детали мучительных переговоров между Грецией и странами ЕС во время долгового кризиса в стране в 2015 году. Яннис Варуфакис пытался уговорить страны ЕС хотя бы частично списать внешний долг Греции и ослабить политику «строгой экономии».



Страна: Франция, Греция
Студия: K.G. Productions, Wild Bunch, Elle Driver
Продолжительность: 02:07:29
Перевод: Профессиональный (многоголосый, закадровый) - iTunes



Информация о файле:
Кодек: AVC
Формат: MKV
Качество: HDRip-AVC
Видео: MPEG-4 AVC, 1024x428 (2.40:1), 23.976 fps, 1245 kbps, 0.118
Аудио RU: AC3, 6 ch, 48 kHz, 384 kbps
Навигация по главам: Да

x264 info: frame I:1207 Avg QP:16.75 size: 54525
x264 info: frame P:40152 Avg QP:20.60 size: 14893
x264 info: frame B:142044 Avg QP:22.15 size: 3701
x264 info: consecutive B-frames: 2.0% 3.5% 6.8% 20.5% 19.3% 37.7% 5.6% 1.7% 1.1% 0.1% 0.5% 0.2% 0.9%
General
Unique ID : 242709874688171948771358847467230350627 (0xB69838B73DCEA8CF4B45E9A6DA7C4D23)
Complete name : D:uTorrentРипы_от_wolf1245_MediaBitAdults in the Room (2019) HDRip-AVC from wolf1245 & MediaBit.mkv
Format : Matroska
Format version : Version 4
File size : 1.45 GiB
Duration : 2 h 7 min
Overall bit rate : 1 629 kb/s
Movie name : Adults in the Room (2019) HDRip-AVC from wolf1245 & MediaBit
Encoded date : UTC 2020-11-14 21:26:15
Writing application : mkvmerge v51.0.0 ('I Wish') 64-bit
Writing library : libebml v1.4.0 + libmatroska v1.6.2
Video
ID : 1
Format : AVC
Format/Info : Advanced Video Codec
Format profile : High@L4.1
Format settings : CABAC / 12 Ref Frames
Format settings, CABAC : Yes
Format settings, Reference frames : 12 frames
Codec ID : V_MPEG4/ISO/AVC
Duration : 2 h 7 min
Bit rate : 1 245 kb/s
Width : 1 024 pixels
Height : 428 pixels
Display aspect ratio : 2.40:1
Frame rate mode : Constant
Frame rate : 23.976 (24000/1001) FPS
Color space : YUV
Chroma subsampling : 4:2:0
Bit depth : 8 bits
Scan type : Progressive
Bits/(Pixel*Frame) : 0.118
Stream size : 1.11 GiB (76%)
Title : wolf1245 & MediaBit
Writing library : x264 core 157 r2958 57baac4
Encoding settings : cabac=1 / ref=12 / deblock=1:-3:-2 / analyse=0x3:0x133 / me=umh / subme=11 / psy=1 / psy_rd=1.03:0.03 / mixed_ref=1 / me_range=48 / chroma_me=1 / trellis=2 / 8x8dct=1 / cqm=0 / deadzone=21,11 / fast_pskip=0 / chroma_qp_offset=-3 / threads=10 / lookahead_threads=2 / sliced_threads=0 / nr=0 / decimate=0 / interlaced=0 / bluray_compat=0 / constrained_intra=0 / bframes=12 / b_pyramid=2 / b_adapt=2 / b_bias=0 / direct=3 / weightb=1 / open_gop=0 / weightp=2 / keyint=240 / keyint_min=24 / scenecut=40 / intra_refresh=0 / rc_lookahead=100 / rc=2pass / mbtree=0 / bitrate=1245 / ratetol=1.0 / qcomp=0.60 / qpmin=0 / qpmax=69 / qpstep=4 / cplxblur=20.0 / qblur=0.5 / vbv_maxrate=50000 / vbv_bufsize=62500 / nal_hrd=none / filler=0 / ip_ratio=1.40 / pb_ratio=1.30 / aq=2:0.80
Default : Yes
Forced : No
Audio
ID : 2
Format : AC-3
Format/Info : Audio Coding 3
Commercial name : Dolby Digital
Codec ID : A_AC3
Duration : 2 h 7 min
Bit rate mode : Constant
Bit rate : 384 kb/s
Channel(s) : 6 channels
Channel layout : L R C LFE Ls Rs
Sampling rate : 48.0 kHz
Frame rate : 31.250 FPS (1536 SPF)
Compression mode : Lossy
Stream size : 350 MiB (24%)
Title : MVO | iTunes
Language : Russian
Service kind : Complete Main
Default : Yes
Forced : No
Menu
00:00:00.000 : :00:00:00.000
00:07:52.180 : :00:07:52.180
00:17:19.579 : :00:17:19.580
00:28:13.150 : :00:28:13.150
00:36:37.612 : :00:36:37.612
00:43:43.287 : :00:43:43.287
00:55:40.671 : :00:55:40.671
01:05:49.112 : :01:05:49.112
01:13:09.385 : :01:13:09.385
01:18:18.360 : :01:18:18.360
01:25:34.296 : :01:25:34.296
01:33:03.203 : :01:33:03.203
01:40:47.250 : :01:40:47.250
01:48:19.034 : :01:48:19.034
01:56:41.870 : :01:56:41.870
02:02:20.333 : :02:02:20.333
Релиз от: & &
piratbit.pw



Скачать Грекзит через торрент https://c.radikal.ru/c22/2011/47/aef991451808.jpg Скачать фильм Грекзит через торрент бесплантно в хорошем качестве Описание: Сюжет фильма раскрывает детали мучительных переговоров между Грецией и странами ЕС во время долгового кризиса в стране в 2015 ... 5.5 10 2
Торрент: Зарегистрирован [2020-11-14 21:38] · скачан: 7 раз
Статус: √ проверено
Размер: 1.45 GB
Как cкачать? Как скачать Грекзит через торрент | qTorrent

28-11-2019 20:33  

Отключить всю рекламу на сайте

    Дорогой пользователь! Огромная просьба, поблагодарите релизера, оцените раздачу и оставьте свои комментарий, если Вы скачали Грекзит через торрент бесплатно! Внесите свою лепту в развитие PiratBit!
    Комментировать посты могут только пользователи прошедшие не сложную регистрацию
    Показать сообщения:    

    Грекзит через торрент
    Скачать бесплатно Грекзит
    Грекзит скачать торрент
    Грекзит смотреть онлайн
    Cкачать фильм Грекзит бесплатно
    Грекзит скачать торрент в хорошем качестве
    Грекзит смотреть онлайн бесплатно в хорошем качестве


    Вы не можете начинать темы
    Вы не можете отвечать на сообщения
    Вы не можете редактировать свои сообщения
    Вы не можете удалять свои сообщения
    Вы не можете голосовать в опросах
    Вы не можете прикреплять файлы к сообщениям
    Вы можете скачивать файлы