Ссылка на приватное зеркало нашего сайта всего за 1$. Внимание количество ограничено!!!

2 сезон

iTunes

1 сезон

1

2 сезон

2 сезон

iTunes

1 сезон

RePack

30

Новинка

ВАЖНО

ИГРА 18+

pack

RePack

MK11
pack

Забери бонус

RePack

jed

!!Акция!!

Alien_Rage

RePack

fifa19

RePack

Assassins Creed: Odyssey

RePack

NEED FOR SPEED™ PAYBACK

4 сезон

9 сезон

Бесстыжие 9 сезон

Все сериалы

все сериалы на PB.wtf

RePack

FAR CRY 5
  

:wtf: байки / The Mortuary Collection (Райан Р. Спинделл) [2019, Ужасы, фэнтези, комедия, WEB-DLRip-AVC] [DUB] [Line] от MediaBit piratbit.pw

:wtf: байки через торрент piratbit.pw

Раздают: 23 [ 0 KB/s ]
Размер: 1.45 GB | Добавлен: 10 д. назад | Торрент скачан:178 раз
Скачать  

13-11-2020 15:16 :wtf: байки Скачать торрент  


байки / The Mortuary Collection
Информация о фильме:
Название: байки
Оригинальное название: The Mortuary Collection
Год выхода: 2019
Жанр: Ужасы, фэнтези, комедия
Режиссер: Райан Р. Спинделл

В ролях: Клэнси Браун, Кейтлин Кастер, Кристин Килмер, Джейкоб Элорди, Тристан Бьон, Иден Кэмпбелл, Майк С. Нельсон, Бреннан Мюррэй, Майкл Боу, Барак Хардли

Описание: Девушка Сэм приходит устраиваться на работу в похоронное бюро, где только что прошла церемония поминовения умершего мальчика. Эксцентричный гробовщик Монтгомери Дарк уверяет, что у каждого покойника есть интересная история, и он собирал их годами. Сэм просит рассказать ей самые страшные, Дарк выбирает три - из 1950-х, 1960-х и 1970-х годов. Но, похоже, девушку не так-то просто напугать.

rating

Страна: США
Студия: AMP International, Trapdoor Pictures
Продолжительность: 01:50:51
Перевод: Дубляж - Line



Информация о файле:
Кодек: AVC
Формат: MKV
Качество: WEB-DLRip-AVC
Видео: MPEG-4 AVC, 1024x430 (2.40:1), 24.000 fps, 1233 kb/s, 0.117
Аудио RU: AC3, 2 ch, 48 kHz, 192 kbps
Аудио EN: AC3, 6 ch, 48 kHz, 448 kbps
Субтитры: Английские

x264 info: frame I:1219 Avg QP:13.11 size: 46084
x264 info: frame P:35728 Avg QP:16.55 size: 14239
x264 info: frame B:122692 Avg QP:18.48 size: 3749
General
Unique ID : 156777941177218359617173119179321371466 (0x75F25549882E060090D6041257A5EB4A)
Complete name : D:uTorrentРипы_от_wolf1245_MediaBitThe Mortuary Collection (2019) WEB-DLRip-AVC from wolf1245 & MediaBit.mkv
Format : Matroska
Format version : Version 4
File size : 1.45 GiB
Duration : 1 h 50 min
Overall bit rate : 1 875 kb/s
Movie name : The Mortuary Collection (2019) WEB-DLRip-AVC from wolf1245 & MediaBit
Encoded date : UTC 2020-11-13 02:32:12
Writing application : mkvmerge v51.0.0 ('I Wish') 64-bit
Writing library : libebml v1.4.0 + libmatroska v1.6.2
Video
ID : 1
Format : AVC
Format/Info : Advanced Video Codec
Format profile : High@L4.1
Format settings : CABAC / 12 Ref Frames
Format settings, CABAC : Yes
Format settings, Reference frames : 12 frames
Codec ID : V_MPEG4/ISO/AVC
Duration : 1 h 50 min
Bit rate : 1 233 kb/s
Width : 1 024 pixels
Height : 430 pixels
Display aspect ratio : 2.40:1
Frame rate mode : Constant
Frame rate : 24.000 FPS
Color space : YUV
Chroma subsampling : 4:2:0
Bit depth : 8 bits
Scan type : Progressive
Bits/(Pixel*Frame) : 0.117
Stream size : 977 MiB (66%)
Title : wolf1245 & MediaBit
Writing library : x264 core 157 r2958 57baac4
Encoding settings : cabac=1 / ref=12 / deblock=1:-3:-2 / analyse=0x3:0x133 / me=umh / subme=11 / psy=1 / psy_rd=1.02:0.03 / mixed_ref=1 / me_range=48 / chroma_me=1 / trellis=2 / 8x8dct=1 / cqm=0 / deadzone=21,11 / fast_pskip=0 / chroma_qp_offset=-3 / threads=10 / lookahead_threads=2 / sliced_threads=0 / nr=0 / decimate=0 / interlaced=0 / bluray_compat=0 / constrained_intra=0 / bframes=12 / b_pyramid=2 / b_adapt=2 / b_bias=0 / direct=3 / weightb=1 / open_gop=0 / weightp=2 / keyint=240 / keyint_min=24 / scenecut=40 / intra_refresh=0 / rc_lookahead=100 / rc=2pass / mbtree=0 / bitrate=1233 / ratetol=1.0 / qcomp=0.60 / qpmin=0 / qpmax=69 / qpstep=4 / cplxblur=20.0 / qblur=0.5 / vbv_maxrate=50000 / vbv_bufsize=62500 / nal_hrd=none / filler=0 / ip_ratio=1.40 / pb_ratio=1.30 / aq=3:0.70
Language : English
Default : Yes
Forced : No
Color range : Limited
Color primaries : BT.709
Transfer characteristics : BT.709
Matrix coefficients : BT.709
Audio #1
ID : 2
Format : AC-3
Format/Info : Audio Coding 3
Commercial name : Dolby Digital
Codec ID : A_AC3
Duration : 1 h 50 min
Bit rate mode : Constant
Bit rate : 192 kb/s
Channel(s) : 2 channels
Channel layout : L R
Sampling rate : 48.0 kHz
Frame rate : 31.250 FPS (1536 SPF)
Compression mode : Lossy
Stream size : 152 MiB (10%)
Title : DUB (Line)
Language : Russian
Service kind : Complete Main
Default : Yes
Forced : No
Audio #2
ID : 3
Format : AC-3
Format/Info : Audio Coding 3
Commercial name : Dolby Digital
Codec ID : A_AC3
Duration : 1 h 50 min
Bit rate mode : Constant
Bit rate : 448 kb/s
Channel(s) : 2 channels
Channel layout : L R
Sampling rate : 48.0 kHz
Frame rate : 31.250 FPS (1536 SPF)
Compression mode : Lossy
Stream size : 355 MiB (24%)
Title : original
Language : English
Service kind : Complete Main
Default : No
Forced : No
Text
ID : 4
Format : UTF-8
Codec ID : S_TEXT/UTF8
Codec ID/Info : UTF-8 Plain Text
Duration : 1 h 50 min
Bit rate : 38 b/s
Count of elements : 1382
Stream size : 31.4 KiB (0%)
Language : English
Default : No
Forced : No
Релиз от: &
piratbit.pw



Скачать :wtf: байки через торрент https://c.radikal.ru/c42/2011/e7/401283171efe.jpg Скачать фильм :wtf: байки через торрент бесплантно в хорошем качестве Описание: Девушка Сэм приходит устраиваться на работу в похоронное бюро, где только что прошла церемония поминовения умершего мальчика. ... 9.9 10 8
Торрент: Зарегистрирован [2020-11-13 15:16] · скачан: 178 раз
Статус: T временная
Размер: 1.45 GB
Как cкачать? Как скачать :wtf: байки через торрент | qTorrent

28-11-2019 20:33  

Отключить всю рекламу на сайте

13-11-2020 17:22 :wtf: байки Скачать торрент  

Топик был перенесен из форума Фильмы 2019-2020 (Звук TS, Cam, VO, DVO) в форум Фильмы 2019-2020 [DVDrip, WEB-DLRip, HDrip] (DUB, MVO)


bober100piratbit.pw



    Дорогой пользователь! Огромная просьба, поблагодарите релизера, оцените раздачу и оставьте свои комментарий, если Вы скачали :wtf: байки через торрент бесплатно! Внесите свою лепту в развитие PiratBit!
    Комментировать посты могут только пользователи прошедшие не сложную регистрацию
    Показать сообщения:    

    :wtf: байки через торрент
    Скачать бесплатно :wtf: байки
    :wtf: байки скачать торрент
    :wtf: байки смотреть онлайн
    Cкачать фильм :wtf: байки бесплатно
    :wtf: байки скачать торрент в хорошем качестве
    :wtf: байки смотреть онлайн бесплатно в хорошем качестве


    Вы не можете начинать темы
    Вы не можете отвечать на сообщения
    Вы не можете редактировать свои сообщения
    Вы не можете удалять свои сообщения
    Вы не можете голосовать в опросах
    Вы не можете прикреплять файлы к сообщениям
    Вы можете скачивать файлы