1 сезон

3 сезон

iTunes

1

iTunes

DUB Netflix

iTunes

13

1 сезон

RePack

30

Deluxe

pack

Легкие деньги

ВАЖНО

ИГРА 18+

pack

RePack

MK11

RePack

jed

RePack

fifa19

RePack

RDR2

RePack

NEED FOR SPEED™ PAYBACK

4 сезон

9 сезон

Бесстыжие 9 сезон

Все сериалы

все сериалы на PB.wtf

RePack

FAR CRY 5

Anonymous, доброй ночи, мы не успеваем до 1 числа собрать деньги на оплату серверов, помогите нам пожалуйста в это трудное время. В качестве благодарности мы отключим Вам всю рекламу на сайте (укажите свой ник в строку Ваше имя)!

×
  
Magnet ссылка

Морг / Morgue (Уго Кардосо) [2019, Ужасы, триллер, WEB-DL 1080p] DUB [iTunes] piratbit.pw

Морг через торрент piratbit.pw

Раздают: 1 [ 0 KB/s ]
Размер: 2.82 GB | Добавлен: 7 мес. назад | Торрент скачан:159 раз
Скачать  

12-11-2020 10:28 Морг Скачать торрент  

Морг | Morgue
Год выпуска: 2019
Страна: Парагвай
Студия: HJ Producciones
Жанр: Ужасы, триллер
Продолжительность: 01:20:37
Перевод: Дублированный | iTunes
Субтитры: отсутствуют

Режиссер: Уго Кардосо

rating

В ролях: Пабло Мартинес, Уилли Виллальба, Мария дель Мар Фернандес, Абель Мартинес, Альдо Фон Кноблох, Франсиско Айала, Рауль Ротела

Описание: Провести ночь в морге — то еще развлечение не для слабонервных и новенькому охраннику в этом плане «повезло». На первом же дежурстве он замечает очень странные вещи и сталкивается с потусторонней сущностью, способной прятаться в тени и настроенной явно враждебно.

Качество: WEB-DL 1080p
Формат: MKV

Видео: MPEG-4 AVC, 1920x804 (2.40:1), 4614 Kbps, 24.000 fps
Аудио Russian: 48 kHz, AC3, 3/2 (L,C,R,l,r) + LFE ch, ~384 kbps
скриншот   скриншот   скриншот   скриншот  

General
Unique ID : 90726035524884859328700996861804127038 (0x444132E82E2E01F5112B604C977FA33E)
Complete name : MORGUE_2019_WEB-DL_1080p-BLUEBIRD.mkv
Format : Matroska
Format version : Version 4 / Version 2
File size : 2.82 GiB
Duration : 1 h 20 min
Overall bit rate : 5 000 kb/s
Movie name : MORGUE_2019_WEB-DL_1080p-BLUEBIRD
Encoded date : UTC 2020-11-11 19:24:38
Writing application : mkvmerge v43.0.0 ('The Quartermaster') 64-bit
Writing library : libebml v1.3.10 + libmatroska v1.5.2
Cover : Yes
Attachments : cover.jpg

Video
ID : 1
Format : AVC
Format/Info : Advanced Video Codec
Format profile : High@L4
Format settings, CABAC : Yes
Format settings, RefFrames : 5 frames
Format settings, GOP : N=1
Codec ID : V_MPEG4/ISO/AVC
Duration : 1 h 20 min
Bit rate : 4 614 kb/s
Width : 1 920 pixels
Height : 804 pixels
Display aspect ratio : 2.40:1
Frame rate mode : Constant
Frame rate : 24.000 FPS
Color space : YUV
Chroma subsampling : 4:2:0
Bit depth : 8 bits
Scan type : Progressive
Bits/(Pixel*Frame) : 0.125
Stream size : 2.60 GiB (92%)
Language : English
Default : Yes
Forced : No
Color range : Limited
Color primaries : BT.709
Transfer characteristics : BT.709
Matrix coefficients : BT.709

Audio
ID : 2
Format : AC-3
Format/Info : Audio Coding 3
Format settings, Endianness : Big
Codec ID : A_AC3
Duration : 1 h 20 min
Bit rate mode : Constant
Bit rate : 384 kb/s
Channel(s) : 6 channels
Channel positions : Front: L C R, Side: L R, LFE
Sampling rate : 48.0 kHz
Frame rate : 31.250 FPS (1536 SPF)
Bit depth : 16 bits
Compression mode : Lossy
Stream size : 221 MiB (8%)
Title : [DUB] DD 5.1 @ 384 kbps (iTunes)
Language : Russian
Service kind : Complete Main
Default : Yes
Forced : No

Menu
00:00:00.000 : en:Глава 1
00:05:26.458 : en:Глава 2
00:13:56.166 : en:Глава 3
00:21:23.874 : en:Глава 4
00:30:18.374 : en:Глава 5
00:37:34.540 : en:Глава 6
00:44:56.998 : en:Глава 7
00:53:03.414 : en:Глава 8
01:01:04.997 : en:Глава 9
01:10:10.247 : en:Глава 10

piratbit.pw



Скачать Морг через торрент https://c.radikal.ru/c09/2011/b8/e9b53c86a5c7.jpg Скачать фильм Морг через торрент бесплантно в хорошем качестве Описание: Провести ночь в морге — то еще развлечение не для слабонервных и новенькому охраннику в этом плане «повезло». На первом же ... 10 10 8
Торрент: Зарегистрирован [2020-11-12 10:28] · скачан: 159 раз
Статус: √ проверено
Размер: 2.82 GB
Как cкачать? Как скачать Морг через торрент | UTorrent

% Раздел Тема Автор DL S | L
Фильмы 2019-2020 [DVDrip, WEB-DLRip, HDrip] (DUB, MVO) [ 1.46 GB ] Морг / Morgue [2019 BDRip] bober100 Скачать
8 | 0

28-11-2019 20:33  

Отключить всю рекламу на сайте

10-06-2021 11:39 Морг Скачать торрент  

Нудно, за неимением лучшего-на разок.piratbit.pw



    Дорогой пользователь! Огромная просьба, поблагодарите релизера, оцените раздачу и оставьте свои комментарий, если Вы скачали Морг через торрент бесплатно! Внесите свою лепту в развитие PiratBit!
    Комментировать посты могут только пользователи прошедшие не сложную регистрацию
    Показать сообщения:    

    Морг через торрент
    Скачать бесплатно Морг
    Морг скачать торрент
    Морг смотреть онлайн
    Cкачать фильм Морг бесплатно
    Морг скачать торрент в хорошем качестве
    Морг смотреть онлайн бесплатно в хорошем качестве


    Вы не можете начинать темы
    Вы не можете отвечать на сообщения
    Вы не можете редактировать свои сообщения
    Вы не можете удалять свои сообщения
    Вы не можете голосовать в опросах
    Вы не можете прикреплять файлы к сообщениям
    Вы можете скачивать файлы