Ссылка на приватное зеркало нашего сайта всего за 1$. Внимание количество ограничено!!!

2 сезон

iTunes

1 сезон

1

2 сезон

2 сезон

iTunes

1 сезон

RePack

30

Ultimate

ВАЖНО

ИГРА 18+

pack

RePack

MK11
pack

Забери бонус

RePack

jed

!!Акция!!

Alien_Rage

RePack

fifa19

RePack

Assassins Creed: Odyssey

RePack

NEED FOR SPEED™ PAYBACK

4 сезон

9 сезон

Бесстыжие 9 сезон

Все сериалы

все сериалы на PB.wtf

RePack

FAR CRY 5
  

Киллер по вызову / Прушный денек / Lucky Day (Роджер Эвери) [2019, Боевик, триллер, криминал, BDRip-AVC] DUB [iTunes] piratbit.pw

Киллер по вызову через торрент piratbit.pw

Раздают: 7 [ 0 KB/s ]
Размер: 1.41 GB | Добавлен: 19 д. назад | Торрент скачан:73 раза
Скачать  

11-11-2020 05:44 Киллер по вызову Скачать торрент  

Киллер по вызову | Прушный денек | Lucky Day
Год выпуска: 2019
Страна: Франция, Канада
Студия: Avary, Davis-Films, Don Carmody Productions
Жанр: Боевик, триллер, криминал
Продолжительность: 01:39:15
Перевод: Дублированное | iTunes
*** ~ 4 мин на французскую речь перевод Авторский одноголосый Михаил Чадов
Субтитры: Английские (форсированные на французскую речь (хардсаб))

Режиссер: Роджер Эвери

rating

В ролях: Люк Брейси, Нина Добрев, Криспин Гловер, Элла Райан Куинн, Кле Беннетт, Клифтон Коллинз мл., Дэвид Хьюлетт, Надя Фарес, Томер Сислей, Марк Дакаскос

Описание: В первый же день после освобождения из тюрьмы взломщик сейфов Ред и его подруга становятся мишенью киллера. Сея вокруг себя хаос, киллер шутит с акцентом, что мстит за убитую собаку. Не спеша уничтожать жертву, он явно ведет свою игру, истинной целью которой может быть вовсе не Ред.

Качество: BDRip-AVC
Формат: MKV

Видео: 960x400 (2.40:1), 23,976 fps, MPEG-4 AVC ~ 1654 Kbps avg, 0.180 bit/pixel
Аудио: AC3, 48 kHz, 6 ch, ~384.00 kbps avg | русский | iTunes
скриншот  скриншот  скриншот  скриншот  скриншот  

Общее
Уникальный идентификатор : 304526057503384389838047215918791861776 (0xE51995D62B08077819B1233395CD2610)
Полное имя : Lucky.Day.2019.iT.BDRip.1.41Gb.x264.mkv
Формат : Matroska
Версия формата : Version 4
Размер файла : 1,41 Гбайт
Продолжительность : 1 ч. 39 м.
Общий поток : 2 040 Кбит/сек
Название фильма : Киллер по вызову / Lucky Day (2019)
Дата кодирования : UTC 2020-11-10 23:21:33
Программа кодирования : mkvmerge v47.0.0 ('Black Flag') 64-bit
Библиотека кодирования : libebml v1.3.10 + libmatroska v1.5.2
Обложка : Yes
Attachments : cover.jpg

Видео
Идентификатор : 1
Формат : AVC
Формат/Информация : Advanced Video Codec
Профиль формата : High@L4.1
Настройки формата : CABAC / 11 Ref Frames
Параметр CABAC формата : Да
Параметр RefFrames формата : 11 кадров
Идентификатор кодека : V_MPEG4/ISO/AVC
Продолжительность : 1 ч. 39 м.
Битрейт : 1 654 Кбит/сек
Ширина : 960 пикселей
Высота : 400 пикселей
Соотношение сторон : 2,40:1
Режим частоты кадров : Постоянный
Частота кадров : 23,976 (24000/1001) кадра/сек
Цветовое пространство : YUV
Субдискретизация насыщенности : 4:2:0
Битовая глубина : 8 бит
Тип развёртки : Прогрессивная
Бит/(Пиксели*Кадры) : 0.180
Размер потока : 1,15 Гбайт (81%)
Заголовок : #stillet
Библиотека кодирования : x264 core 152 r2851bm ba24899
Настройки программы : cabac=1 / ref=11 / deblock=1:-2:-2 / analyse=0x3:0x113 / me=umh / subme=11 / psy=1 / psy_rd=1.00:0.15 / mixed_ref=1 / me_range=32 / chroma_me=1 / trellis=2 / 8x8dct=1 / cqm=0 / deadzone=21,11 / fast_pskip=0 / chroma_qp_offset=-3 / threads=8 / lookahead_threads=3 / sliced_threads=0 / nr=0 / decimate=0 / interlaced=0 / bluray_compat=0 / constrained_intra=0 / bframes=10 / b_pyramid=2 / b_adapt=2 / b_bias=0 / direct=3 / weightb=1 / open_gop=0 / weightp=2 / keyint=240 / keyint_min=23 / scenecut=40 / intra_refresh=0 / rc=2pass / mbtree=0 / bitrate=1654 / ratetol=1.0 / qcomp=0.60 / qpmin=0 / qpmax=69 / qpstep=4 / cplxblur=20.0 / qblur=0.5 / ip_ratio=1.40 / pb_ratio=1.30 / aq=1:1.00
Язык : English
Default : Да
Forced : Нет

Аудио
Идентификатор : 2
Формат : AC-3
Формат/Информация : Audio Coding 3
Коммерческое название : Dolby Digital
Идентификатор кодека : A_AC3
Продолжительность : 1 ч. 39 м.
Вид битрейта : Постоянный
Битрейт : 384 Кбит/сек
Каналы : 6 каналов
Channel layout : L R C LFE Ls Rs
Частота : 48,0 КГц
Частота кадров : 31,250 кадров/сек (1536 SPF)
Метод сжатия : С потерями
Размер потока : 273 Мбайт (19%)
Заголовок : iTunes
Язык : Russian
Service kind : Complete Main
Default : Да
Forced : Нет

Текст
Идентификатор : 3
Формат : UTF-8
Идентификатор кодека : S_TEXT/UTF8
Идентификатор кодека/Информация : UTF-8 Plain Text
Продолжительность : 1 ч. 37 м.
Битрейт : 58 бит/сек
Count of elements : 1332
Размер потока : 41,5 Кбайт (0%)
Заголовок : Full
Язык : English
Default : Нет
Forced : Нет

Меню
00:00:00.000 : en:Chapter 01
00:06:02.070 : en:Chapter 02
00:10:49.649 : en:Chapter 03
00:18:16.845 : en:Chapter 04
00:23:41.837 : en:Chapter 05
00:30:44.551 : en:Chapter 06
00:37:38.130 : en:Chapter 07
00:43:59.553 : en:Chapter 08
00:48:35.412 : en:Chapter 09
00:53:35.337 : en:Chapter 10
01:00:05.518 : en:Chapter 11
01:07:10.443 : en:Chapter 12
01:11:08.222 : en:Chapter 13
01:17:25.140 : en:Chapter 14
01:24:48.583 : en:Chapter 15
01:29:50.593 : en:Chapter 16

piratbit.pw



Скачать Киллер по вызову через торрент https://i111.fastpic.ru/big/2020/0503/ae/433c01b44a70136b1d412faa5fe816ae.jpg Скачать фильм Киллер по вызову через торрент бесплантно в хорошем качестве Описание: В первый же день после освобождения из тюрьмы взломщик сейфов Ред и его подруга становятся мишенью киллера. Сея вокруг себя хаос, ... 10 10 5
Торрент: Зарегистрирован [2020-11-11 05:44] · скачан: 73 раз
Статус: √ проверено
Размер: 1.41 GB
Как cкачать? Как скачать Киллер по вызову через торрент | qTorrent

% Раздел Тема Автор DL S | L
Фильмы 2019-2020 [DVDrip, WEB-DLRip, HDrip] (DUB, MVO) [ 747 MB ] Киллер по вызову / Прушный денек / Lucky Day [2019 HDRip] bober100 Скачать
5 | 0
Фильмы 2019-2020 [DVDrip, WEB-DLRip, HDrip] (DUB, MVO) [ 1.46 GB ] Киллер по вызову / Прушный денек / Lucky Day [2019 BDRip] bober100 Скачать
10 | 0
Фильмы (Blu-ray, BD-Remux, HDDVD) [ 19.3 GB ] Киллер по вызову / Прушный денек / Lucky Day [2019 BD Remux 1080p] bober100 Скачать
4 | 0
Фильмы [HD 720p, 1080p] (Хороший звук DUB, MVO) [ 4.04 GB ] Киллер по вызову / Прушный денек / Lucky Day [2019 BDRip 720p] bober100 Скачать
8 | 1
Фильмы [HD 720p, 1080p] (Хороший звук DUB, MVO) [ 10.87 GB ] Киллер по вызову / Прушный денек / Lucky Day [2019 BDRip 1080p] bober100 Скачать
7 | 0

28-11-2019 20:33  

Отключить всю рекламу на сайте

    Дорогой пользователь! Огромная просьба, поблагодарите релизера, оцените раздачу и оставьте свои комментарий, если Вы скачали Киллер по вызову через торрент бесплатно! Внесите свою лепту в развитие PiratBit!
    Комментировать посты могут только пользователи прошедшие не сложную регистрацию
    Показать сообщения:    

    Киллер по вызову через торрент
    Скачать бесплатно Киллер по вызову
    Киллер по вызову скачать торрент
    Киллер по вызову смотреть онлайн
    Cкачать фильм Киллер по вызову бесплатно
    Киллер по вызову скачать торрент в хорошем качестве
    Киллер по вызову смотреть онлайн бесплатно в хорошем качестве


    Вы не можете начинать темы
    Вы не можете отвечать на сообщения
    Вы не можете редактировать свои сообщения
    Вы не можете удалять свои сообщения
    Вы не можете голосовать в опросах
    Вы не можете прикреплять файлы к сообщениям
    Вы можете скачивать файлы