2 сезон

iTunes

WEBRip

1

2 сезон

iTunes

1 сезон

1 сезон

RePack

30

Новинка

ВАЖНО

ИГРА 18+

pack

RePack

MK11
pack

Легкие деньги

RePack

jed

RePack

fifa19

RePack

RDR2

RePack

NEED FOR SPEED™ PAYBACK

4 сезон

9 сезон

Бесстыжие 9 сезон

Все сериалы

все сериалы на PB.wtf

RePack

FAR CRY 5

Anonymous, доброй ночи, мы не успеваем собрать деньги на оплату серверов за февраль, помогите нам пожалуйста в это трудное время. В качестве благодарности мы отключим Вам всю рекламу на сайте (укажите свой ник в строку Ваше имя)!

×
  
Magnet ссылка

Гудбай, Америка (Сарик Андреасян) [2020, мелодрама, комедия, WEBRip-AVC] ExKinoRay piratbit.pw

Гудбай, Америка через торрент piratbit.pw

Раздают: 27 [ 0 KB/s ]
Размер: 1.45 GB | Добавлен: 3 мес. 21 д. назад | Торрент скачан:183 раза
Скачать  

10-11-2020 04:14 Гудбай, Америка Скачать торрент  

Название: Гудбай, Америка
Год выхода: 2020
Жанр: Мелодрама, комедия
Режиссер: Сарик Андреасян
В ролях: Дмитрий Нагиев, Владимир Яглыч, Елизавета Моряк, Юрий Стоянов, Лянка Грыу, Надежда Михалкова, Грант Тохатян, Ирина Темичева, Микаэл Арамян, Добромир Машуков

О фильме: Виктор Сергеевич едет в Америку в гости к дочери и с ужасом обнаруживает, что его внук Пол хоть и говорит по-русски, но не понимает простых вещей, знакомых и понятных каждому мальчишке в России. Неунывающий Армен пытается закрепиться в США, постепенно постигая все прелести фиктивного брака. Для давно обосновавшейся в Штатах Юли неожиданной проблемой становится невозможность найти правильно приготовленную гефилте фиш. Не так давно переехавший в Америку Игорь всячески старается откреститься от своего русского прошлого, называя себя Джейсоном. Казалось бы, совершенно разные люди с совершенно непохожими проблемами, но способный решить любую проблему авантюрист Григорий доказывает, что это не так, все герои страдают от одного недуга – пытаются забыть о своих корнях, упуская нехитрую истину: можно уехать из России, но нельзя перестать быть русским.

rating

Страна: Россия
Студия: Кинокомпания Большое Кино, Fresh Film
Продолжительность: 01:41:22
Перевод: Не требуется (русский)

Формат: MKV
Качество: WEBRip-AVC
Видео: MPEG-4 AVC, 720x302, 1664 kbps, 24.000 fps
Аудио : 48 kHz, AC3, 5.1, 384 Kbps | RUS |
Субтитры: Русские (форсированные)
General
Unique ID : 223340730860159511840463250261740712868 (0xA805DC31E7B3A2F28C5221821DA973A4)
Complete name : G:\GoodBye.America.2020.AVC.ExKinoRay.mkv
Format : Matroska
Format version : Version 2
File size : 1.45 GiB
Duration : 1 h 41 min
Overall bit rate : 2 047 kb/s
Movie name : GoodBye America 2020 from ExKinoRay
Encoded date : UTC 2020-11-10 03:05:35
Writing application : mkvmerge v5.6.0 ('Kenya Kane') built on May 27 2012 16:44:04
Writing library : libebml v1.2.3 + libmatroska v1.3.0

Video
ID : 1
Format : AVC
Format/Info : Advanced Video Codec
Format profile : High@L4.1
Format settings, CABAC : Yes
Format settings, ReFrames : 11 frames
Codec ID : V_MPEG4/ISO/AVC
Duration : 1 h 41 min
Bit rate : 1 664 kb/s
Width : 720 pixels
Height : 302 pixels
Display aspect ratio : 2.40:1
Frame rate mode : Constant
Frame rate : 24.000 FPS
Color space : YUV
Chroma subsampling : 4:2:0
Bit depth : 8 bits
Scan type : Progressive
Bits/(Pixel*Frame) : 0.319
Stream size : 1.15 GiB (79%)
Title : Enigma
Writing library : x264 core 152 r2851 ba24899
Encoding settings : cabac=1 / ref=11 / deblock=1:-2:-2 / analyse=0x3:0x113 / me=umh / subme=10 / psy=1 / psy_rd=1.03:0.09 / mixed_ref=1 / me_range=32 / chroma_me=1 / trellis=2 / 8x8dct=1 / cqm=0 / deadzone=21,11 / fast_pskip=0 / chroma_qp_offset=-3 / threads=9 / lookahead_threads=1 / sliced_threads=0 / nr=0 / decimate=0 / interlaced=0 / bluray_compat=0 / constrained_intra=0 / bframes=9 / b_pyramid=2 / b_adapt=2 / b_bias=0 / direct=3 / weightb=1 / open_gop=0 / weightp=2 / keyint=240 / keyint_min=24 / scenecut=40 / intra_refresh=0 / rc=2pass / mbtree=0 / bitrate=1664 / ratetol=1.0 / qcomp=0.60 / qpmin=0 / qpmax=51 / qpstep=4 / cplxblur=20.0 / qblur=0.5 / ip_ratio=1.30 / pb_ratio=1.20 / aq=1:1.00
Default : Yes
Forced : No

Audio
ID : 2
Format : AC-3
Format/Info : Audio Coding 3
Mode extension : CM (complete main)
Format settings, Endianness : Big
Codec ID : A_AC3
Duration : 1 h 41 min
Bit rate mode : Constant
Bit rate : 384 kb/s
Channel(s) : 6 channels
Channel positions : Front: L C R, Side: L R, LFE
Sampling rate : 48.0 kHz
Frame rate : 31.250 FPS (1536 spf)
Compression mode : Lossy
Stream size : 278 MiB (19%)
Language : Russian
Default : Yes
Forced : No

Text
ID : 3
Format : UTF-8
Codec ID : S_TEXT/UTF8
Codec ID/Info : UTF-8 Plain Text
Title : Forced
Language : Russian
Default : Yes
Forced : No


Релиз от:

Автор релиза: piratbit.pw



Скачать Гудбай, Америка через торрент http://d.radikal.ru/d32/2011/9f/cbb873483d25.jpg Скачать фильм Гудбай, Америка через торрент бесплантно в хорошем качестве О фильме: Виктор Сергеевич едет в Америку в гости к дочери и с ужасом обнаруживает, что его внук Пол хоть и говорит по-русски, но не ... 10 10 6
Info! Золотая раздача, скачанное не засчитывается.
Торрент: Зарегистрирован [2020-11-10 04:14] · скачан: 183 раз
Статус: √ проверено
Размер: 1.45 GB
Как cкачать? Как скачать Гудбай, Америка через торрент | UTorrent

28-11-2019 20:33  

Отключить всю рекламу на сайте

10-11-2020 09:04 Гудбай, Америка Скачать торрент  

Ну это не комедия, чета не зашелpiratbit.pw



    Дорогой пользователь! Огромная просьба, поблагодарите релизера, оцените раздачу и оставьте свои комментарий, если Вы скачали Гудбай, Америка через торрент бесплатно! Внесите свою лепту в развитие PiratBit!
    Комментировать посты могут только пользователи прошедшие не сложную регистрацию
    Показать сообщения:    

    Гудбай, Америка через торрент
    Скачать бесплатно Гудбай, Америка
    Гудбай, Америка скачать торрент
    Гудбай, Америка смотреть онлайн
    Cкачать фильм Гудбай, Америка бесплатно
    Гудбай, Америка скачать торрент в хорошем качестве
    Гудбай, Америка смотреть онлайн бесплатно в хорошем качестве


    Вы не можете начинать темы
    Вы не можете отвечать на сообщения
    Вы не можете редактировать свои сообщения
    Вы не можете удалять свои сообщения
    Вы не можете голосовать в опросах
    Вы не можете прикреплять файлы к сообщениям
    Вы можете скачивать файлы