Ссылка на приватное зеркало нашего сайта всего за 1$. Внимание количество ограничено!!!

2 сезон

iTunes

1 сезон

1

2 сезон

2 сезон

iTunes

1 сезон

RePack

30

Ultimate

ВАЖНО

ИГРА 18+

pack

RePack

MK11
pack

Забери бонус

RePack

jed

!!Акция!!

Alien_Rage

RePack

fifa19

RePack

Assassins Creed: Odyssey

RePack

NEED FOR SPEED™ PAYBACK

4 сезон

9 сезон

Бесстыжие 9 сезон

Все сериалы

все сериалы на PB.wtf

RePack

FAR CRY 5
  

Восстание роботов / Robot Riot (Райан Стэйплс Скотт) [2020, Фантастика, боевик, WEB-DLRip-AVC] [MVO] [IVI] от MediaBit piratbit.pw

Восстание роботов через торрент piratbit.pw

Раздают: 5 [ 27 KB/s ]
Размер: 1.45 GB | Добавлен: 17 д. назад | Торрент скачан:165 раз
Скачать  

06-11-2020 17:44 Восстание роботов Скачать торрент  


Восстание роботов / Robot Riot
Информация о фильме:
Название: Восстание роботов
Оригинальное название: Robot Riot
Год выхода: 2020
Жанр: Фантастика, боевик
Режиссер: Райан Стэйплс Скотт
В ролях: Сара Дж. Бартоломью, Кайт Брасел, Джейми Коста, Дункан Барретт Браун, Джейсон Лейва, Райан Мерриман, Брукс Райан, Люк Вайкофф

Описание: Группе солдат стирают память и сбрасывают на испытательный полигон, где некогда послушные машины обрели свой собственный разум и поставили перед собой одну цель - разрушать.



Страна: США
Студия: High Octane Pictures
Продолжительность: 01:27:53
Перевод: Профессиональный (многоголосый, закадровый) - Звук с онлайн-кинотеатра IVI



Информация о файле:
Кодек: AVC
Формат: MKV
Качество: WEB-DLRip-AVC
Видео: MPEG-4 AVC, 1024x426 (2.40:1), 23.976 fps, 2171 kb/s, 0.208
Аудио RU: AC3, 2 ch, 48 kHz, 192 kbps
Субтитры: English (Full, SDH)

x264 info: frame I:981 Avg QP:15.21 size: 63548
x264 info: frame P:29518 Avg QP:17.71 size: 22282
x264 info: frame B:95917 Avg QP:19.23 size: 7392
General
Unique ID : 49256429316216118753405009774607416516 (0x250E7176B18A8F288330C32DF4ED3CC4)
Complete name : D:uTorrentРипы_от_wolf1245_MediaBitRobot Riot (2020) WEB-DLRip-AVC from wolf1245 & MediaBit.mkv
Format : Matroska
Format version : Version 4
File size : 1.45 GiB
Duration : 1 h 27 min
Overall bit rate : 2 362 kb/s
Movie name : Robot Riot (2020) WEB-DLRip-AVC from wolf1245 & MediaBit
Encoded date : UTC 2020-11-06 17:32:10
Writing application : mkvmerge v51.0.0 ('I Wish') 64-bit
Writing library : libebml v1.4.0 + libmatroska v1.6.2
Video
ID : 1
Format : AVC
Format/Info : Advanced Video Codec
Format profile : High@L4.1
Format settings : CABAC / 12 Ref Frames
Format settings, CABAC : Yes
Format settings, Reference frames : 12 frames
Codec ID : V_MPEG4/ISO/AVC
Duration : 1 h 27 min
Bit rate : 2 171 kb/s
Width : 1 024 pixels
Height : 426 pixels
Display aspect ratio : 2.40:1
Frame rate mode : Constant
Frame rate : 23.976 (24000/1001) FPS
Color space : YUV
Chroma subsampling : 4:2:0
Bit depth : 8 bits
Scan type : Progressive
Bits/(Pixel*Frame) : 0.208
Stream size : 1.33 GiB (92%)
Title : wolf1245 & MediaBit
Writing library : x264 core 157 r2958 57baac4
Encoding settings : cabac=1 / ref=12 / deblock=1:-3:-2 / analyse=0x3:0x133 / me=umh / subme=9 / psy=1 / psy_rd=1.03:0.03 / mixed_ref=1 / me_range=48 / chroma_me=1 / trellis=2 / 8x8dct=1 / cqm=0 / deadzone=21,11 / fast_pskip=0 / chroma_qp_offset=-3 / threads=10 / lookahead_threads=2 / sliced_threads=0 / nr=0 / decimate=0 / interlaced=0 / bluray_compat=0 / constrained_intra=0 / bframes=12 / b_pyramid=2 / b_adapt=2 / b_bias=0 / direct=3 / weightb=1 / open_gop=0 / weightp=2 / keyint=240 / keyint_min=24 / scenecut=40 / intra_refresh=0 / rc_lookahead=100 / rc=2pass / mbtree=0 / bitrate=2171 / ratetol=1.0 / qcomp=0.60 / qpmin=0 / qpmax=69 / qpstep=4 / cplxblur=20.0 / qblur=0.5 / vbv_maxrate=50000 / vbv_bufsize=62500 / nal_hrd=none / filler=0 / ip_ratio=1.40 / pb_ratio=1.30 / aq=0
Default : Yes
Forced : No
Color range : Limited
Color primaries : BT.709
Transfer characteristics : BT.709
Matrix coefficients : BT.709
Audio
ID : 2
Format : AC-3
Format/Info : Audio Coding 3
Commercial name : Dolby Digital
Codec ID : A_AC3
Duration : 1 h 27 min
Bit rate mode : Constant
Bit rate : 192 kb/s
Channel(s) : 2 channels
Channel layout : L R
Sampling rate : 48.0 kHz
Frame rate : 31.250 FPS (1536 SPF)
Compression mode : Lossy
Stream size : 121 MiB (8%)
Title : MVO | IVI
Language : Russian
Service kind : Complete Main
Default : Yes
Forced : No
Text #1
ID : 3
Format : UTF-8
Codec ID : S_TEXT/UTF8
Codec ID/Info : UTF-8 Plain Text
Duration : 1 h 20 min
Bit rate : 43 b/s
Count of elements : 810
Stream size : 25.9 KiB (0%)
Language : English
Default : No
Forced : No
Text #2
ID : 4
Format : UTF-8
Codec ID : S_TEXT/UTF8
Codec ID/Info : UTF-8 Plain Text
Duration : 1 h 23 min
Bit rate : 50 b/s
Count of elements : 1052
Stream size : 30.9 KiB (0%)
Title : SDH
Language : English
Default : No
Forced : No
Релиз от: & &
piratbit.pw



Скачать Восстание роботов через торрент https://a.radikal.ru/a28/2011/90/b66aa9782d44.png Скачать фильм Восстание роботов через торрент бесплантно в хорошем качестве Описание: Группе солдат стирают память и сбрасывают на испытательный полигон, где некогда послушные машины обрели свой собственный разум ... 8.7 10 7
Торрент: Зарегистрирован [2020-11-06 17:44] · скачан: 165 раз
Статус: √ проверено
Размер: 1.45 GB
Как cкачать? Как скачать Восстание роботов через торрент | qTorrent

28-11-2019 20:33  

Отключить всю рекламу на сайте

08-11-2020 21:37 Восстание роботов Скачать торрент  

ацтой ..piratbit.pw



09-11-2020 09:38 Восстание роботов Скачать торрент  

Говняная говнина Не благодарите piratbit.pw



    Дорогой пользователь! Огромная просьба, поблагодарите релизера, оцените раздачу и оставьте свои комментарий, если Вы скачали Восстание роботов через торрент бесплатно! Внесите свою лепту в развитие PiratBit!
    Комментировать посты могут только пользователи прошедшие не сложную регистрацию
    Показать сообщения:    

    Восстание роботов через торрент
    Скачать бесплатно Восстание роботов
    Восстание роботов скачать торрент
    Восстание роботов смотреть онлайн
    Cкачать фильм Восстание роботов бесплатно
    Восстание роботов скачать торрент в хорошем качестве
    Восстание роботов смотреть онлайн бесплатно в хорошем качестве


    Вы не можете начинать темы
    Вы не можете отвечать на сообщения
    Вы не можете редактировать свои сообщения
    Вы не можете удалять свои сообщения
    Вы не можете голосовать в опросах
    Вы не можете прикреплять файлы к сообщениям
    Вы можете скачивать файлы