Ссылка на приватное зеркало нашего сайта всего за 1$. Внимание количество ограничено!!!

2 сезон

iTunes

1 сезон

1

2 сезон

2 сезон

iTunes

1 сезон

RePack

30

Ultimate

ВАЖНО

ИГРА 18+

pack

RePack

MK11
pack

Забери бонус

RePack

jed

!!Акция!!

Alien_Rage

RePack

fifa19

RePack

Assassins Creed: Odyssey

RePack

NEED FOR SPEED™ PAYBACK

4 сезон

9 сезон

Бесстыжие 9 сезон

Все сериалы

все сериалы на PB.wtf

RePack

FAR CRY 5
  

Гром юрского периода / Jurassic Thunder (Милко Дэвис, Томас Мартвик) [2019, Боевик, WEB-DLRip-AVC] [DUB] [iTunes] от MediaBit piratbit.pw

Гром юрского периода через торрент piratbit.pw

Раздают: 2 [ 102 KB/s ]
Размер: 1.45 GB | Добавлен: 22 д. назад | Торрент скачан:57 раз
Скачать  

05-11-2020 18:59 Гром юрского периода Скачать торрент  


Гром юрского периода / Jurassic Thunder
Информация о фильме:
Название: Гром юрского периода
Оригинальное название: Jurassic Thunder
Год выхода: 2019
Жанр: Боевик
Режиссер: Милко Дэвис, Томас Мартвик
В ролях: Хит С. Хейн, Рик Хаак, Джон Коттон, Дмитрий Раскес, Элвис Шарп, Иван Павлетик, Ага Кистлер, Рич Ричардсон III, Леон Мэйфилд, Джина Ди Туллио

Описание: Третья мировая война. Отряд наёмников и вооружённых динозавров отправляется на задание с целью защитить секретную базу в пустыне. Однако, в ходе выполнения миссии им приходится столкнуться с куда более жестокими врагами, нежели предполагалось: жестоким диктатором и кровожадными зомби, порождённых биологическим оружием. Американцы, русские и динозавры должны вместе дать отпор смертельной опасности, которой мир ещё не видывал.



Страна: США
Студия: Armageddon Films
Продолжительность: 01:24:16
Перевод: Профессиональный (многоголосый, закадровый) - iTunes



Информация о файле:
Кодек: AVC
Формат: MKV
Качество: WEB-DLRip-AVC
Видео: MPEG-4 AVC, 1024x576 (16:9), 24.000 fps, 1697 kb/s, 0.120
Аудио RU: AC3, 6 ch, 48 kHz, 384 kbps
Аудио EN: AC3, 6 ch, 48 kHz, 384 kbps
Субтитры: Нет

x264 info: frame I:857 Avg QP:19.50 size: 52056
x264 info: frame P:33952 Avg QP:23.75 size: 16907
x264 info: frame B:86535 Avg QP:25.35 size: 5245
General
Unique ID : 144877094276486351928290212383975704041 (0x6CFE503BC9AEB86B51639B3A762A85E9)
Complete name : D:uTorrentРипы_от_wolf1245_MediaBitJurassic Thunder (2019) WEB-DLRip-AVC from wolf1245 & MediaBit.mkv
Format : Matroska
Format version : Version 4
File size : 1.45 GiB
Duration : 1 h 24 min
Overall bit rate : 2 467 kb/s
Movie name : Jurassic Thunder (2019) WEB-DLRip-AVC from wolf1245 & MediaBit
Encoded date : UTC 2020-11-05 18:39:29
Writing application : mkvmerge v51.0.0 ('I Wish') 64-bit
Writing library : libebml v1.4.0 + libmatroska v1.6.2
Cover : Yes
Attachments : cover
Video
ID : 1
Format : AVC
Format/Info : Advanced Video Codec
Format profile : High@L4.1
Format settings : CABAC / 12 Ref Frames
Format settings, CABAC : Yes
Format settings, Reference frames : 12 frames
Codec ID : V_MPEG4/ISO/AVC
Duration : 1 h 24 min
Bit rate : 1 697 kb/s
Width : 1 024 pixels
Height : 576 pixels
Display aspect ratio : 16:9
Frame rate mode : Constant
Frame rate : 24.000 FPS
Color space : YUV
Chroma subsampling : 4:2:0
Bit depth : 8 bits
Scan type : Progressive
Bits/(Pixel*Frame) : 0.120
Stream size : 1 023 MiB (69%)
Title : wolf1245 & MediaBit
Writing library : x264 core 157 r2958 57baac4
Encoding settings : cabac=1 / ref=12 / deblock=1:-3:-3 / analyse=0x3:0x133 / me=umh / subme=11 / psy=1 / psy_rd=1.03:0.03 / mixed_ref=1 / me_range=48 / chroma_me=1 / trellis=2 / 8x8dct=1 / cqm=0 / deadzone=21,11 / fast_pskip=0 / chroma_qp_offset=-3 / threads=10 / lookahead_threads=2 / sliced_threads=0 / nr=0 / decimate=0 / interlaced=0 / bluray_compat=0 / constrained_intra=0 / bframes=12 / b_pyramid=2 / b_adapt=2 / b_bias=0 / direct=3 / weightb=1 / open_gop=0 / weightp=2 / keyint=240 / keyint_min=24 / scenecut=40 / intra_refresh=0 / rc_lookahead=100 / rc=2pass / mbtree=0 / bitrate=1697 / ratetol=1.0 / qcomp=0.60 / qpmin=0 / qpmax=69 / qpstep=4 / cplxblur=20.0 / qblur=0.5 / vbv_maxrate=50000 / vbv_bufsize=62500 / nal_hrd=none / filler=0 / ip_ratio=1.40 / pb_ratio=1.30 / aq=2:0.70
Language : English
Default : Yes
Forced : No
Color range : Limited
Color primaries : BT.709
Transfer characteristics : BT.709
Matrix coefficients : BT.709
Audio #1
ID : 2
Format : AC-3
Format/Info : Audio Coding 3
Commercial name : Dolby Digital
Codec ID : A_AC3
Duration : 1 h 24 min
Bit rate mode : Constant
Bit rate : 384 kb/s
Channel(s) : 6 channels
Channel layout : L R C LFE Ls Rs
Sampling rate : 48.0 kHz
Frame rate : 31.250 FPS (1536 SPF)
Compression mode : Lossy
Stream size : 231 MiB (16%)
Title : [MVO] | iTunes
Language : Russian
Service kind : Complete Main
Default : Yes
Forced : No
Audio #2
ID : 3
Format : AC-3
Format/Info : Audio Coding 3
Commercial name : Dolby Digital
Codec ID : A_AC3
Duration : 1 h 24 min
Bit rate mode : Constant
Bit rate : 384 kb/s
Channel(s) : 6 channels
Channel layout : L R C LFE Ls Rs
Sampling rate : 48.0 kHz
Frame rate : 31.250 FPS (1536 SPF)
Compression mode : Lossy
Stream size : 231 MiB (16%)
Title : [ORIGINAL] | iTunes
Language : English
Service kind : Complete Main
Default : No
Forced : No
Релиз от: & &
piratbit.pw



Скачать Гром юрского периода через торрент https://i114.fastpic.ru/big/2020/1104/d9/c56d9714a67f643138c5d4982acac9d9.jpeg Скачать фильм Гром юрского периода через торрент бесплантно в хорошем качестве Описание: Третья мировая война. Отряд наёмников и вооружённых динозавров отправляется на задание с целью защитить секретную базу в ... 7 10 3
Торрент: Зарегистрирован [2020-11-05 18:59] · скачан: 57 раз
Статус: √ проверено
Размер: 1.45 GB
Как cкачать? Как скачать Гром юрского периода через торрент | qTorrent

28-11-2019 20:33  

Отключить всю рекламу на сайте

06-11-2020 17:40 Гром юрского периода Скачать торрент  

Кто снимает такую ахиуинеюpiratbit.pw



06-11-2020 17:52 Гром юрского периода Скачать торрент  

Треш 80-го уровня!piratbit.pw



    Дорогой пользователь! Огромная просьба, поблагодарите релизера, оцените раздачу и оставьте свои комментарий, если Вы скачали Гром юрского периода через торрент бесплатно! Внесите свою лепту в развитие PiratBit!
    Комментировать посты могут только пользователи прошедшие не сложную регистрацию
    Показать сообщения:    

    Гром юрского периода через торрент
    Скачать бесплатно Гром юрского периода
    Гром юрского периода скачать торрент
    Гром юрского периода смотреть онлайн
    Cкачать фильм Гром юрского периода бесплатно
    Гром юрского периода скачать торрент в хорошем качестве
    Гром юрского периода смотреть онлайн бесплатно в хорошем качестве


    Вы не можете начинать темы
    Вы не можете отвечать на сообщения
    Вы не можете редактировать свои сообщения
    Вы не можете удалять свои сообщения
    Вы не можете голосовать в опросах
    Вы не можете прикреплять файлы к сообщениям
    Вы можете скачивать файлы