Ссылка на приватное зеркало нашего сайта всего за 1$. Внимание количество ограничено!!!

2 сезон

iTunes

1 сезон

1

2 сезон

2 сезон

iTunes

1 сезон

RePack

30

Новинка

ВАЖНО

ИГРА 18+

pack

RePack

MK11
pack

Забери бонус

RePack

jed

!!Акция!!

Alien_Rage

RePack

fifa19

RePack

Assassins Creed: Odyssey

RePack

NEED FOR SPEED™ PAYBACK

4 сезон

9 сезон

Бесстыжие 9 сезон

Все сериалы

все сериалы на PB.wtf

RePack

FAR CRY 5
  

Мы призываем тьму / We Summon the Darkness (Марк Мейерс) [2019, Ужасы, триллер, HDRip-AVC] [DUB] [iTunes] от MediaBit piratbit.pw

Мы призываем тьму через торрент piratbit.pw

Раздают: 5 [ 0 KB/s ]
Размер: 1.45 GB | Добавлен: 22 д. назад | Торрент скачан:95 раз
Скачать  

02-11-2020 08:25 Мы призываем тьму Скачать торрент  


Мы призываем тьму / We Summon the Darkness
Информация о фильме:
Название: Мы призываем тьму
Оригинальное название: We Summon the Darkness
Год выхода: 2019
Жанр: Ужасы, триллер
Режиссер: Марк Мейерс
В ролях: Александра Даддарио, Джонни Ноксвилл, Киан Джонсон, Мэдди Хассон, Логан Миллер, Эми Форсайт, Эллисон МакЭти, Остин Свифт, Стефани Мороз, Эрик Атхавале, Тэннер Бирд, Дэннис Скаллард, Стив Пако, Дерек Джеймс Трапп

Описание: Жуткие события развернулись в штате Индиана в 1988 году. Буквально все средства массовой информации твердят о том, что в Америке одно за другим происходят ритуальные убийства. В это самое время популярный проповедник постоянно твердит о том, что молодые люди подвергаются негативному влиянию тяжелого рока. В разгар этой шумихи три подруги отправляются на концерт, чтобы послушать «хеви-метал». На концерте они встречают трех парней, и вместе с ними едут за город на тусовку в загородном доме. Но в какой-то момент ситуация резко меняется, и веселье оборачивается совсем не смешным продолжением.



Страна: США
Студия: Common Enemy, Highland Film Group (HFG), Magna Entertainment, Iconic Media One
Продолжительность: 01:31:01
Перевод: Дублированное - iTunes



Информация о файле:
Кодек: AVC
Формат: MKV
Качество: HDRip-AVC
Видео: MPEG-4 AVC, 1024x430 (2.40:1), 23.976 fps, 1441 kb/s, 0.136
Аудио RU: AC3, 6 ch, 48 kHz, 384 kbps
Аудио EN: AC3, 6 ch, 48 kHz, 448 kbps
Навигация по главам: Да

x264 info: frame I:1182 Avg QP:13.51 size: 53880
x264 info: frame P:26671 Avg QP:16.86 size: 16839
x264 info: frame B:103096 Avg QP:18.45 size: 4568
==================================
General
Unique ID : 11745101538632829261797258402916014694 (0x8D60636E827CFC18D0D7B10F9151A66)
Complete name : D:uTorrentРипы_от_wolf1245_MediaBitWe Summon the Darkness (2019) HDRip-AVC from wolf1245 & MediaBit.mkv
Format : Matroska
Format version : Version 4
File size : 1.45 GiB
Duration : 1 h 31 min
Overall bit rate : 2 274 kb/s
Movie name : We Summon the Darkness (2019) HDRip-AVC from wolf1245 & MediaBit
Encoded date : UTC 2020-11-02 08:49:21
Writing application : mkvmerge v51.0.0 ('I Wish') 64-bit
Writing library : libebml v1.4.0 + libmatroska v1.6.2
Video
ID : 1
Format : AVC
Format/Info : Advanced Video Codec
Format profile : High@L4.1
Format settings : CABAC / 12 Ref Frames
Format settings, CABAC : Yes
Format settings, Reference frames : 12 frames
Codec ID : V_MPEG4/ISO/AVC
Duration : 1 h 31 min
Bit rate : 1 441 kb/s
Width : 1 024 pixels
Height : 430 pixels
Display aspect ratio : 2.40:1
Frame rate mode : Constant
Frame rate : 23.976 (24000/1001) FPS
Color space : YUV
Chroma subsampling : 4:2:0
Bit depth : 8 bits
Scan type : Progressive
Bits/(Pixel*Frame) : 0.136
Stream size : 938 MiB (63%)
Title : wolf1245 & MediaBit
Writing library : x264 core 157 r2958 57baac4
Encoding settings : cabac=1 / ref=12 / deblock=1:-3:-3 / analyse=0x3:0x133 / me=umh / subme=11 / psy=1 / psy_rd=1.03:0.05 / mixed_ref=1 / me_range=48 / chroma_me=1 / trellis=2 / 8x8dct=1 / cqm=0 / deadzone=21,11 / fast_pskip=0 / chroma_qp_offset=-3 / threads=10 / lookahead_threads=2 / sliced_threads=0 / nr=0 / decimate=0 / interlaced=0 / bluray_compat=0 / constrained_intra=0 / bframes=12 / b_pyramid=2 / b_adapt=2 / b_bias=0 / direct=3 / weightb=1 / open_gop=0 / weightp=2 / keyint=240 / keyint_min=24 / scenecut=40 / intra_refresh=0 / rc_lookahead=100 / rc=2pass / mbtree=0 / bitrate=1441 / ratetol=1.0 / qcomp=0.60 / qpmin=0 / qpmax=69 / qpstep=4 / cplxblur=20.0 / qblur=0.5 / vbv_maxrate=50000 / vbv_bufsize=62500 / nal_hrd=none / filler=0 / ip_ratio=1.40 / pb_ratio=1.30 / aq=2:0.80
Language : English
Default : Yes
Forced : No
Color range : Limited
Color primaries : BT.709
Transfer characteristics : BT.709
Matrix coefficients : BT.709
Audio #1
ID : 2
Format : AC-3
Format/Info : Audio Coding 3
Commercial name : Dolby Digital
Codec ID : A_AC3
Duration : 1 h 30 min
Bit rate mode : Constant
Bit rate : 384 kb/s
Channel(s) : 6 channels
Channel layout : L R C LFE Ls Rs
Sampling rate : 48.0 kHz
Frame rate : 31.250 FPS (1536 SPF)
Compression mode : Lossy
Stream size : 250 MiB (17%)
Title : DUB (iTunes)
Language : Russian
Service kind : Complete Main
Default : Yes
Forced : No
Audio #2
ID : 3
Format : AC-3
Format/Info : Audio Coding 3
Commercial name : Dolby Digital
Codec ID : A_AC3
Duration : 1 h 31 min
Bit rate mode : Constant
Bit rate : 448 kb/s
Channel(s) : 6 channels
Channel layout : L R C LFE Ls Rs
Sampling rate : 48.0 kHz
Frame rate : 31.250 FPS (1536 SPF)
Compression mode : Lossy
Stream size : 292 MiB (20%)
Title : Original
Language : English
Service kind : Complete Main
Default : No
Forced : No
Menu
00:00:00.000 : :Chapter 01
00:03:53.442 : :Chapter 02
00:08:56.785 : :Chapter 03
00:16:33.826 : :Chapter 04
00:21:55.064 : :Chapter 05
00:25:35.492 : :Chapter 06
00:33:48.151 : :Chapter 07
00:41:36.494 : :Chapter 08
00:45:21.135 : :Chapter 09
00:50:29.360 : :Chapter 10
00:55:29.117 : :Chapter 11
01:01:02.784 : :Chapter 12
01:09:00.928 : :Chapter 13
01:13:44.503 : :Chapter 14
01:16:35.382 : :Chapter 15
01:22:26.400 : :Chapter 16
Релиз от: & &
piratbit.pw



Скачать Мы призываем тьму через торрент https://i4.imageban.ru/out/2020/11/01/4c720d14c94b691c2dc5c57975b23ce9.png Скачать фильм Мы призываем тьму через торрент бесплантно в хорошем качестве Описание: Жуткие события развернулись в штате Индиана в 1988 году. Буквально все средства массовой информации твердят о том, что в ... 9.8 10 4
Торрент: Зарегистрирован [2020-11-02 09:00] · скачан: 95 раз
Статус: √ проверено
Размер: 1.45 GB
Как cкачать? Как скачать Мы призываем тьму через торрент | qTorrent

28-11-2019 20:33  

Отключить всю рекламу на сайте

02-11-2020 15:09 Мы призываем тьму Скачать торрент  

хеви-металЛpiratbit.pw



    Дорогой пользователь! Огромная просьба, поблагодарите релизера, оцените раздачу и оставьте свои комментарий, если Вы скачали Мы призываем тьму через торрент бесплатно! Внесите свою лепту в развитие PiratBit!
    Комментировать посты могут только пользователи прошедшие не сложную регистрацию
    Показать сообщения:    

    Мы призываем тьму через торрент
    Скачать бесплатно Мы призываем тьму
    Мы призываем тьму скачать торрент
    Мы призываем тьму смотреть онлайн
    Cкачать фильм Мы призываем тьму бесплатно
    Мы призываем тьму скачать торрент в хорошем качестве
    Мы призываем тьму смотреть онлайн бесплатно в хорошем качестве


    Вы не можете начинать темы
    Вы не можете отвечать на сообщения
    Вы не можете редактировать свои сообщения
    Вы не можете удалять свои сообщения
    Вы не можете голосовать в опросах
    Вы не можете прикреплять файлы к сообщениям
    Вы можете скачивать файлы