Ссылка на приватное зеркало нашего сайта всего за 1$. Внимание количество ограничено!!!

2 сезон

iTunes

1 сезон

1

2 сезон

2 сезон

iTunes

1 сезон

RePack

30

Новинка

ВАЖНО

ИГРА 18+

pack

RePack

MK11
pack

Забери бонус

RePack

jed

!!Акция!!

Alien_Rage

RePack

fifa19

RePack

Assassins Creed: Odyssey

RePack

NEED FOR SPEED™ PAYBACK

4 сезон

9 сезон

Бесстыжие 9 сезон

Все сериалы

все сериалы на PB.wtf

RePack

FAR CRY 5
  

Ундина / Undine (Кристиан Петцольд) [2020 г., драма, мелодрама, WEB-DLRip, Профессиональный многоголосый закадровый "iTunes"] piratbit.pw

Ундина через торрент piratbit.pw

Размер: 700 MB | Добавлен: 23 д. назад | Торрент скачан:26 раз
Скачать  

31-10-2020 18:40 Ундина Скачать торрент  

Ундина / Undine
Год выпуска: 2020
Страна: Германия, Франция / Schramm Film, Les Films du Losange, Zweites Deutsches Fernsehen (ZDF)
Жанр: драма, мелодрама
Продолжительность: 01:29:27
Перевод: Профессиональный многоголосый закадровый (iTunes)
«Любовь на грани жизни и смерти»

Режиссер: Кристиан Петцольд

rating

В ролях: Паула Бер, Франц Роговский, Марьям Заре, Якоб Маченц, Анна Ратте-Полле, Рафаэль Стаховяк, Хосе Баррош, Джулия Франц Рихтер, Глория Эндрес де Оливейра, Энно Требс

Описание: Ундина знает все об архитектуре Восточного и Западного Берлина, ее рассказами заслушиваются посетители выставки, они пленяют сердце мечтателя Кристофа. Знакомство молодых людей мистическим образом сближает их. Но у Ундины есть тайна – ее прошлое – роковой роман с Йоханнесом, человеком, который ее предал…

Качество: WEB-DLRip
Формат: AVI
Видео кодек: DivX
Аудио кодек: MP3
Видео: 640x344 (1.86:1), 24.000 fps, DivX Codec 4.x ~956 kbps avg, 0.18 bit/pixel
Аудио: 48 kHz, MPEG Layer 3, 2 ch, ~128.00 kbps avg
скриншот   скриншот   скриншот   скриншот  

Общее
Полное имя : F:\ФИЛЬМЫ\Ундина.2020.D.WEB-DLRip.avi
Формат : AVI
Формат/Информация : Audio Video Interleave
Размер файла : 700 Мбайт
Продолжительность : 1 ч. 29 м.
Общий поток : 1 094 Кбит/сек
Программа кодирования : VirtualDubMod 1.5.10.3 | www.virtualdub-fr.org || (build 2550/release)
Библиотека кодирования : VirtualDubMod build 2550/release

Видео
Идентификатор : 0
Формат : MPEG-4 Visual
Профиль формата : Advanced Simple@L5
Настройки формата : BVOP3 / GMC3 / QPel
Параметр BVOP формата : 3
Параметр QPel формата : Да
Параметр GMC формата : 3 точки перехода
Параметр матрицы формата : Default (MPEG)
Идентификатор кодека : DIVX
Идентификатор кодека/Информация : Project Mayo
Идентификатор кодека/Подсказка : DivX 4
Продолжительность : 1 ч. 29 м.
Битрейт : 957 Кбит/сек
Ширина : 640 пикселей
Высота : 344 пикселя
Соотношение сторон : 1,85:1
Частота кадров : 24,000 кадра/сек
Цветовое пространство : YUV
Субдискретизация насыщенности : 4:2:0
Битовая глубина : 8 бит
Тип развёртки : Прогрессивная
Метод сжатия : С потерями
Бит/(Пиксели*Кадры) : 0.181
Размер потока : 612 Мбайт (87%)
Библиотека кодирования : XviD 1.2.1 (UTC 2008-12-04)

Аудио
Идентификатор : 1
Формат : MPEG Audio
Версия формата : Version 1
Профиль формата : Layer 3
Настройки формата : Joint stereo / MS Stereo
Идентификатор кодека : 55
Идентификатор кодека/Подсказка : MP3
Продолжительность : 1 ч. 29 м.
Вид битрейта : Постоянный
Битрейт : 128 Кбит/сек
Каналы : 2 канала
Частота : 48,0 КГц
Частота кадров : 41,667 кадра/сек (1152 SPF)
Метод сжатия : С потерями
Размер потока : 81,9 Мбайт (12%)
Выравнивание : Соединение по промежуткам
Продолжительность промежутка : 42 мс. (1,00 видеокадр)
Время предзагрузки промежутка : 504 мс.
Библиотека кодирования : LAME3.99r
Настройки программы : -m j -V 4 -q 2 -lowpass 17 -b 128

piratbit.pw



Скачать Ундина через торрент https://pic1.kartinco.top/images/12/1wsnx.jpg Скачать фильм Ундина через торрент бесплантно в хорошем качестве Описание: Ундина знает все об архитектуре Восточного и Западного Берлина, ее рассказами заслушиваются посетители выставки, они пленяют ... 10 10 1
Торрент: Зарегистрирован [2020-10-31 18:40] · скачан: 26 раз
Статус: √ проверено
Размер: 700 MB
Как cкачать? Как скачать Ундина через торрент | qTorrent

% Раздел Тема Автор DL S | L
Фильмы 2019-2020 [DVDrip, WEB-DLRip, HDrip] (DUB, MVO) [ 1.42 GB ] Ундина / Undine [2020 BDRip] MVO Twi7ter Скачать
20 | 0
Фильмы [HD 720p, 1080p] (Хороший звук DUB, MVO) [ 4.39 GB ] Ундина / Undine [2020 BDRip 720p] MVO bober100 Скачать
2 | 0
Фильмы [HD 720p, 1080p] (Хороший звук DUB, MVO) [ 8.45 GB ] Ундина / Undine [2020 BDRip 1080p] MVO bober100 Скачать
5 | 0
Фильмы (Blu-ray, BD-Remux, HDDVD) [ 13.77 GB ] Ундина / Undine [2020 BD Remux 1080p] MVO bober100 Скачать
2 | 0
Фильмы (WEB-DL 720p, 1080p) [ 3.39 GB ] Ундина / Undine [2020 WEB-DL 1080p] MVO bober100 Скачать
2 | 0

28-11-2019 20:33  

Отключить всю рекламу на сайте

    Дорогой пользователь! Огромная просьба, поблагодарите релизера, оцените раздачу и оставьте свои комментарий, если Вы скачали Ундина через торрент бесплатно! Внесите свою лепту в развитие PiratBit!
    Комментировать посты могут только пользователи прошедшие не сложную регистрацию
    Показать сообщения:    

    Ундина через торрент
    Скачать бесплатно Ундина
    Ундина скачать торрент
    Ундина смотреть онлайн
    Cкачать фильм Ундина бесплатно
    Ундина скачать торрент в хорошем качестве
    Ундина смотреть онлайн бесплатно в хорошем качестве


    Вы не можете начинать темы
    Вы не можете отвечать на сообщения
    Вы не можете редактировать свои сообщения
    Вы не можете удалять свои сообщения
    Вы не можете голосовать в опросах
    Вы не можете прикреплять файлы к сообщениям
    Вы можете скачивать файлы