Ссылка на приватное зеркало нашего сайта всего за 1$. Внимание количество ограничено!!!

2 сезон

iTunes

1 сезон

1

2 сезон

2 сезон

iTunes

1 сезон

RePack

30

Ultimate

ВАЖНО

ИГРА 18+

pack

RePack

MK11
pack

Забери бонус

RePack

jed

!!Акция!!

Alien_Rage

RePack

fifa19

RePack

Assassins Creed: Odyssey

RePack

NEED FOR SPEED™ PAYBACK

4 сезон

9 сезон

Бесстыжие 9 сезон

Все сериалы

все сериалы на PB.wtf

RePack

FAR CRY 5
  

Клаустрофобы: Квест в Москве / Follow Me (Уилл Верник) [2020, Ужасы, триллер, BDRip-AVC] DUB [iTunes] piratbit.pw

Клаустрофобы: Квест в Москве через торрент piratbit.pw

Раздают: 1 [ 0 KB/s ]
Размер: 2.13 GB | Добавлен: 27 д. назад | Торрент скачан:47 раз
Скачать  

29-10-2020 07:50 Клаустрофобы: Квест в Москве Скачать торрент  

Клаустрофобы: Квест в Москве | Follow Me
Год выпуска: 2020
Страна: США
Студия: Escape Productions
Жанр: Ужасы, триллер
Продолжительность: 01:32:02
Перевод: Дублированный | iTunes
Субтитры: Английские (SDH)

Режиссер: Уилл Верник

rating

В ролях: Холлэнд Роден, Ронен Рубинштейн, Павел Личникофф, Кигэн Аллен, Кимберли Куинн, Дензел Уитакер, Эмилия Арес Зорян, Равиль Исянов, Доминик Паке, Эмили Хинклер

Описание: На протяжении многих лет фанат экстремальных приключений Коул ведет видеоблог, в котором делится с огромной армией своих подписчиков увлекательным и зрелищным контентом. Готовясь к 10-ой годовщине создания видеоблога Коула, его близкие друзья планируют необычный сюрприз: прохождение сложнейшего квеста в Москве. Когда герой узнает, что долгожданный подарок — всего лишь квест, он крайне расстроен, ведь надеялся записать ролик о чем-то более необычном для своих поклонников. Но то, что начинается как обычная приключенческая игра, вскоре превращается в борьбу за выживание, за которой следят миллионы зрителей в прямом эфире...

Качество: BDRip-AVC
Формат: MKV

Видео: 1024x428 (2.40:1), 23.976 fps, MPEG-4 AVC ~ 2491 Kbps avg, 0.237 bit/pixel
Аудио: AC3, 48 kHz, 6 ch, ~384.00 kbps avg | русский | iTunes
Аудио: AC3, 48 kHz, 6 ch, ~448.00 kbps avg | английский | Оригинал
скриншот  скриншот  скриншот  скриншот  скриншот  

Общее
Уникальный идентификатор : 145792671129936424047185093593430622866 (0x6DAEA5A85ABAECB8A98B2BDC42FE0292)
Полное имя : Follow.Me.2020.BDRip.2.13Gb.x264.mkv
Формат : Matroska
Версия формата : Version 4
Размер файла : 2,13 Гбайт
Продолжительность : 1 ч. 32 м.
Общий поток : 3 314 Кбит/сек
Название фильма : Клаустрофобы: Квест в Москве / Follow Me (2020)
Дата кодирования : UTC 2020-10-29 06:35:32
Программа кодирования : mkvmerge v47.0.0 ('Black Flag') 64-bit
Библиотека кодирования : libebml v1.3.10 + libmatroska v1.5.2
Обложка : Yes
Attachments : cover.jpg

Видео
Идентификатор : 1
Формат : AVC
Формат/Информация : Advanced Video Codec
Профиль формата : High@L4.1
Настройки формата : CABAC / 11 Ref Frames
Параметр CABAC формата : Да
Параметр RefFrames формата : 11 кадров
Идентификатор кодека : V_MPEG4/ISO/AVC
Продолжительность : 1 ч. 32 м.
Битрейт : 2 491 Кбит/сек
Ширина : 1 024 пикселя
Высота : 428 пикселей
Соотношение сторон : 2,40:1
Режим частоты кадров : Постоянный
Частота кадров : 23,976 кадра/сек
Цветовое пространство : YUV
Субдискретизация насыщенности : 4:2:0
Битовая глубина : 8 бит
Тип развёртки : Прогрессивная
Бит/(Пиксели*Кадры) : 0.237
Размер потока : 1,59 Гбайт (75%)
Заголовок : #stillet
Библиотека кодирования : x264 core 152 r2851bm ba24899
Настройки программы : cabac=1 / ref=11 / deblock=1:-2:-2 / analyse=0x3:0x113 / me=umh / subme=10 / psy=1 / psy_rd=1.00:0.15 / mixed_ref=1 / me_range=32 / chroma_me=1 / trellis=2 / 8x8dct=1 / cqm=0 / deadzone=21,11 / fast_pskip=0 / chroma_qp_offset=-3 / threads=8 / lookahead_threads=3 / sliced_threads=0 / nr=0 / decimate=0 / interlaced=0 / bluray_compat=0 / constrained_intra=0 / bframes=11 / b_pyramid=2 / b_adapt=2 / b_bias=0 / direct=3 / weightb=1 / open_gop=0 / weightp=2 / keyint=240 / keyint_min=23 / scenecut=40 / intra_refresh=0 / rc=2pass / mbtree=0 / bitrate=2491 / ratetol=1.0 / qcomp=0.60 / qpmin=0 / qpmax=69 / qpstep=4 / cplxblur=20.0 / qblur=0.5 / ip_ratio=1.40 / pb_ratio=1.30 / aq=1:1.00
Язык : English
Default : Да
Forced : Нет

Аудио #1
Идентификатор : 2
Формат : AC-3
Формат/Информация : Audio Coding 3
Коммерческое название : Dolby Digital
Идентификатор кодека : A_AC3
Продолжительность : 1 ч. 32 м.
Вид битрейта : Постоянный
Битрейт : 384 Кбит/сек
Каналы : 6 каналов
Channel layout : L R C LFE Ls Rs
Частота : 48,0 КГц
Частота кадров : 31,250 кадров/сек (1536 SPF)
Метод сжатия : С потерями
Размер потока : 253 Мбайт (12%)
Заголовок : iTunes
Язык : Russian
Service kind : Complete Main
Default : Да
Forced : Да

Аудио #2
Идентификатор : 3
Формат : AC-3
Формат/Информация : Audio Coding 3
Коммерческое название : Dolby Digital
Идентификатор кодека : A_AC3
Продолжительность : 1 ч. 32 м.
Вид битрейта : Постоянный
Битрейт : 448 Кбит/сек
Каналы : 6 каналов
Channel layout : L R C LFE Ls Rs
Частота : 48,0 КГц
Частота кадров : 31,250 кадров/сек (1536 SPF)
Метод сжатия : С потерями
Размер потока : 295 Мбайт (14%)
Язык : English
Service kind : Complete Main
Default : Нет
Forced : Нет

Текст
Идентификатор : 4
Формат : UTF-8
Идентификатор кодека : S_TEXT/UTF8
Идентификатор кодека/Информация : UTF-8 Plain Text
Продолжительность : 1 ч. 27 м.
Битрейт : 68 бит/сек
Count of elements : 1594
Размер потока : 43,5 Кбайт (0%)
Заголовок : SDH
Язык : English
Default : Нет
Forced : Нет

Меню
00:00:00.000 : en:Chapter 1
00:08:20.708 : en:Chapter 2
00:16:59.809 : en:Chapter 3
00:25:56.053 : en:Chapter 4
00:31:57.873 : en:Chapter 5
00:39:01.296 : en:Chapter 6
00:46:47.012 : en:Chapter 7
00:53:13.940 : en:Chapter 8
00:59:23.976 : en:Chapter 9
01:07:08.774 : en:Chapter 10
01:14:31.049 : en:Chapter 11
01:26:27.765 : en:Chapter 12

piratbit.pw



Скачать Клаустрофобы: Квест в Москве через торрент https://i114.fastpic.ru/big/2020/1029/f1/cb916856cedb52227d04b8ea8c540af1.jpg Скачать фильм Клаустрофобы: Квест в Москве через торрент бесплантно в хорошем качестве Описание: На протяжении многих лет фанат экстремальных приключений Коул ведет видеоблог, в котором делится с огромной армией своих ... 10 10 4
Торрент: Зарегистрирован [2020-10-29 07:50] · скачан: 47 раз
Статус: √ проверено
Размер: 2.13 GB
Как cкачать? Как скачать Клаустрофобы: Квест в Москве через торрент | qTorrent

% Раздел Тема Автор DL S | L
Фильмы 2019-2020 [DVDrip, WEB-DLRip, HDrip] (DUB, MVO) [ 1.42 GB ] Клаустрофобы: Квест в Москве / Follow Me [2020 BDRip] - Twi7ter Скачать
19 | 0
Фильмы 2019-2020 [DVDrip, WEB-DLRip, HDrip] (DUB, MVO) [ 746 MB ] Клаустрофобы: Квест в Москве / Follow Me [2020 HDRip] bober100 Скачать
2 | 0
Фильмы (Blu-ray, BD-Remux, HDDVD) [ 19.61 GB ] Клаустрофобы: Квест в Москве / Follow Me [2020 BD Remux 1080p] bober100 Скачать
2 | 0
Фильмы [HD 720p, 1080p] (Хороший звук DUB, MVO) [ 9.21 GB ] Клаустрофобы: Квест в Москве / Follow Me [2020 BDRip 1080p] bober100 Скачать
4 | 0
Фильмы (WEB-DL 720p, 1080p) [ 4.29 GB ] Клаустрофобы: Квест в Москве / Follow Me [2020 WEB-DL 1080p] bober100 Скачать
4 | 0
Фильмы 2019-2020 [DVDrip, WEB-DLRip, HDrip] (DUB, MVO) [ 1.45 GB ] Клаустрофобы: Квест в Москве / Follow Me [2020 BDRip] bober100 Скачать
3 | 0
Фильмы 2019-2020 [DVDrip, WEB-DLRip, HDrip] (DUB, MVO) [ 1.65 GB ] Клаустрофобы: Квест в Москве / Follow Me [2020 WEB-DLRip-AVC] [MVO] [@MUZOBOZ@] от MediaBit Lithuania Скачать
9 | 0

28-11-2019 20:33  

Отключить всю рекламу на сайте

29-10-2020 11:38 Клаустрофобы: Квест в Москве Скачать торрент  

Фильм полное днище, кроме названия ничего общего с клаустрофобами 2017 года. Не тратьте время, на это дно!piratbit.pw



    Дорогой пользователь! Огромная просьба, поблагодарите релизера, оцените раздачу и оставьте свои комментарий, если Вы скачали Клаустрофобы: Квест в Москве через торрент бесплатно! Внесите свою лепту в развитие PiratBit!
    Комментировать посты могут только пользователи прошедшие не сложную регистрацию
    Показать сообщения:    

    Клаустрофобы: Квест в Москве через торрент
    Скачать бесплатно Клаустрофобы: Квест в Москве
    Клаустрофобы: Квест в Москве скачать торрент
    Клаустрофобы: Квест в Москве смотреть онлайн
    Cкачать фильм Клаустрофобы: Квест в Москве бесплатно
    Клаустрофобы: Квест в Москве скачать торрент в хорошем качестве
    Клаустрофобы: Квест в Москве смотреть онлайн бесплатно в хорошем качестве


    Вы не можете начинать темы
    Вы не можете отвечать на сообщения
    Вы не можете редактировать свои сообщения
    Вы не можете удалять свои сообщения
    Вы не можете голосовать в опросах
    Вы не можете прикреплять файлы к сообщениям
    Вы можете скачивать файлы