Ссылка на приватное зеркало нашего сайта всего за 1$. Внимание количество ограничено!!!

2 сезон

iTunes

1 сезон

1

2 сезон

2 сезон

iTunes

1 сезон

RePack

30

Новинка

ВАЖНО

ИГРА 18+

pack

RePack

MK11
pack

Забери бонус

RePack

jed

!!Акция!!

Alien_Rage

RePack

fifa19

RePack

Assassins Creed: Odyssey

RePack

NEED FOR SPEED™ PAYBACK

4 сезон

9 сезон

Бесстыжие 9 сезон

Все сериалы

все сериалы на PB.wtf

RePack

FAR CRY 5
  

Мятежник / Повстанцы / The Rebels (Эммет Камминс) [2019, Приключения, BDRip-AVC] DUB [iTunes] piratbit.pw

Мятежник через торрент piratbit.pw

Раздают: 4 [ 0 KB/s ]
Размер: 2.14 GB | Добавлен: 17 д. назад | Торрент скачан:90 раз
Скачать  

28-10-2020 17:42 Мятежник Скачать торрент  

Мятежник | Повстанцы | The Rebels
Год выпуска: 2019
Страна: Великобритания
Выпущено: Rebel Indie Films
Жанр: Приключения
Продолжительность: 01:25:48
Перевод: Дублированный | iTunes
Субтитры: отсутствуют

Режиссер: Эммет Камминс

rating

В ролях: Мия МакКенна-Брюс, Джулиан Льюис Джонс, Ифан Хью Дэфидд, Колин Мурта, Гийом Риво, Том Лич, Ричард Мэйсон, Джеймс Грум, Гидеон Риз, Саймон Нехан

Описание: I век нашей эры. Британия оккупирована Римской империей и народное недовольство нарастает. Четыре валлийских подростка случайно убивают римского солдата и сбегают в леса. В отместку римляне вырезают их поселение, что запускает цепь событий, которая приводит к полномасштабному восстанию против захватчиков.

Качество: BDRip-AVC
Формат: MKV

Видео: MPEG-4 AVC, 1024x428 (2.40:1), 23.976, MPEG-4 AVC ~ 2737 Kbps avg, 0.260 bit/pixel
Аудио: AC3, 48 kHz, 6 ch, ~384.00 kbps avg | русский | iTunes
Аудио: AC3, 48 kHz, 6 ch, ~448.00 kbps avg | английский | Оригинал
скриншот  скриншот  скриншот  скриншот  скриншот  

x264vfw [info]: frame I:953 Avg QP:14.29 size: 95995
x264vfw [info]: frame P:33162 Avg QP:17.45 size: 28751
x264vfw [info]: frame B:89297 Avg QP:18.35 size: 8007
x264vfw [info]: consecutive B-frames: 6.0% 5.5% 12.3% 24.1% 16.1% 25.8% 5.5% 1.9% 1.0% 1.3% 0.4% 0.3%
x264vfw [info]: mb I I16..4: 18.8% 49.0% 32.2%
x264vfw [info]: mb P I16..4: 2.4% 12.1% 2.6% P16..4: 32.8% 26.4% 18.7% 0.0% 0.0% skip: 5.0%
x264vfw [info]: mb B I16..4: 0.2% 1.0% 0.2% B16..8: 32.0% 12.8% 4.5% direct: 8.9% skip:40.5% L0:41.7% L1:40.2% BI:18.1%
x264vfw [info]: 8x8 transform intra:67.8% inter:45.5%
x264vfw [info]: direct mvs spatial:98.6% temporal:1.4%
x264vfw [info]: coded y,uvDC,uvAC intra: 94.9% 81.3% 60.9% inter: 33.3% 19.3% 8.9%
x264vfw [info]: i16 v,h,dc,p: 15% 9% 51% 25%
x264vfw [info]: i8 v,h,dc,ddl,ddr,vr,hd,vl,hu: 11% 11% 14% 8% 11% 11% 12% 11% 13%
x264vfw [info]: i4 v,h,dc,ddl,ddr,vr,hd,vl,hu: 11% 8% 8% 9% 14% 13% 13% 11% 13%
x264vfw [info]: i8c dc,h,v,p: 50% 22% 16% 12%
x264vfw [info]: Weighted P-Frames: Y:11.8% UV:7.2%
x264vfw [info]: ref P L0: 53.5% 14.5% 12.1% 4.6% 3.9% 2.8% 2.6% 1.5% 1.5% 1.2% 1.4% 0.3% 0.0%
x264vfw [info]: ref B L0: 75.2% 10.2% 4.9% 2.7% 2.0% 1.7% 1.4% 1.0% 0.7% 0.3%
x264vfw [info]: ref B L1: 95.6% 4.4%
x264vfw [info]: kb/s:2735.26
---------------------------------------------------------
Общее
Уникальный идентификатор : 77602473562553522037924295435523190412 (0x3A61B158ABCF287D37773566AA93EE8C)
Полное имя : The.Rebels.2019.BDRip.2.14Gb.MegaPeer.mkv
Формат : Matroska
Версия формата : Version 4
Размер файла : 2,14 Гбайт
Продолжительность : 1 ч. 25 м.
Общий поток : 3 568 Кбит/сек
Название фильма : Мятежник / The Rebels (2019)
Дата кодирования : UTC 2020-11-05 21:01:12
Программа кодирования : mkvmerge v47.0.0 ('Black Flag') 64-bit
Библиотека кодирования : libebml v1.3.10 + libmatroska v1.5.2
Обложка : Yes
Attachments : cover.jpg

Видео
Идентификатор : 1
Формат : AVC
Формат/Информация : Advanced Video Codec
Профиль формата : High@L4.1
Настройки формата : CABAC / 11 Ref Frames
Параметр CABAC формата : Да
Параметр RefFrames формата : 11 кадров
Идентификатор кодека : V_MPEG4/ISO/AVC
Продолжительность : 1 ч. 25 м.
Битрейт : 2 737 Кбит/сек
Ширина : 1 024 пикселя
Высота : 428 пикселей
Соотношение сторон : 2,40:1
Режим частоты кадров : Постоянный
Частота кадров : 23,976 (24000/1001) кадра/сек
Цветовое пространство : YUV
Субдискретизация насыщенности : 4:2:0
Битовая глубина : 8 бит
Тип развёртки : Прогрессивная
Бит/(Пиксели*Кадры) : 0.260
Размер потока : 1,64 Гбайт (77%)
Заголовок : stillet@MegaPeer
Библиотека кодирования : x264 core 152 r2851bm ba24899
Настройки программы : cabac=1 / ref=11 / deblock=1:-2:-2 / analyse=0x3:0x113 / me=umh / subme=10 / psy=1 / psy_rd=1.00:0.15 / mixed_ref=1 / me_range=32 / chroma_me=1 / trellis=2 / 8x8dct=1 / cqm=0 / deadzone=21,11 / fast_pskip=0 / chroma_qp_offset=-3 / threads=8 / lookahead_threads=3 / sliced_threads=0 / nr=0 / decimate=0 / interlaced=0 / bluray_compat=0 / constrained_intra=0 / bframes=11 / b_pyramid=2 / b_adapt=2 / b_bias=0 / direct=3 / weightb=1 / open_gop=0 / weightp=2 / keyint=240 / keyint_min=23 / scenecut=40 / intra_refresh=0 / rc=2pass / mbtree=0 / bitrate=2737 / ratetol=1.0 / qcomp=0.60 / qpmin=0 / qpmax=69 / qpstep=4 / cplxblur=20.0 / qblur=0.5 / ip_ratio=1.40 / pb_ratio=1.30 / aq=1:1.00
Язык : English
Default : Да
Forced : Нет

Аудио #1
Идентификатор : 2
Формат : AC-3
Формат/Информация : Audio Coding 3
Коммерческое название : Dolby Digital
Идентификатор кодека : A_AC3
Продолжительность : 1 ч. 25 м.
Вид битрейта : Постоянный
Битрейт : 384 Кбит/сек
Каналы : 6 каналов
Channel layout : L R C LFE Ls Rs
Частота : 48,0 КГц
Частота кадров : 31,250 кадров/сек (1536 SPF)
Метод сжатия : С потерями
Размер потока : 235 Мбайт (11%)
Заголовок : iTunes
Язык : Russian
Service kind : Complete Main
Default : Да
Forced : Да

Аудио #2
Идентификатор : 3
Формат : AC-3
Формат/Информация : Audio Coding 3
Коммерческое название : Dolby Digital
Идентификатор кодека : A_AC3
Продолжительность : 1 ч. 25 м.
Вид битрейта : Постоянный
Битрейт : 448 Кбит/сек
Каналы : 6 каналов
Channel layout : L R C LFE Ls Rs
Частота : 48,0 КГц
Частота кадров : 31,250 кадров/сек (1536 SPF)
Метод сжатия : С потерями
Размер потока : 275 Мбайт (13%)
Язык : English
Service kind : Complete Main
Default : Нет
Forced : Нет

Меню
00:00:00.000 : :DE: 01
00:06:11.411 : :DE: 02
00:15:14.163 : :DE: 03
00:24:28.674 : :DE: 04
00:33:40.308 : :DE: 05
00:41:43.501 : :DE: 06
00:48:44.795 : :DE: 07
00:54:35.688 : :DE: 08
01:00:27.039 : :DE: 09
01:05:37.849 : :DE: 10
01:13:56.472 : :DE: 11
01:23:12.820 : :DE: 12
01:25:47.182 : :DE: 13

piratbit.pw



Скачать Мятежник через торрент https://b.radikal.ru/b17/2011/c5/5629b6fe5411.png Скачать фильм Мятежник через торрент бесплантно в хорошем качестве Описание: I век нашей эры. Британия оккупирована Римской империей и народное недовольство нарастает. Четыре валлийских подростка случайно ... 8.6 10 7
Торрент: Зарегистрирован [2020-11-06 04:05] · скачан: 90 раз
Статус: √ проверено
Размер: 2.14 GB
Как cкачать? Как скачать Мятежник через торрент | qTorrent

% Раздел Тема Автор DL S | L
Фильмы 2019-2020 [DVDrip, WEB-DLRip, HDrip] (DUB, MVO) [ 1.42 GB ] Мятежник / Повстанцы / The Rebels [2019 BDRip] - Twi7ter Скачать
13 | 0
T Фильмы [HD 720p, 1080p] (Хороший звук DUB, MVO) [ 5.2 GB ] Мятежник / Повстанцы / The Rebels [2019 BDRip 1080p] bober100 Скачать
3 | 0
Фильмы 2019-2020 [DVDrip, WEB-DLRip, HDrip] (DUB, MVO) [ 1.47 GB ] Мятежник / Повстанцы / The Rebels [2019 BDRip] bober100 Скачать
2 | 0

28-11-2019 20:33  

Отключить всю рекламу на сайте

06-11-2020 13:03 Мятежник Скачать торрент  

А что какой короткий?Короткометражка?Жаль!piratbit.pw



    Дорогой пользователь! Огромная просьба, поблагодарите релизера, оцените раздачу и оставьте свои комментарий, если Вы скачали Мятежник через торрент бесплатно! Внесите свою лепту в развитие PiratBit!
    Комментировать посты могут только пользователи прошедшие не сложную регистрацию
    Показать сообщения:    

    Мятежник через торрент
    Скачать бесплатно Мятежник
    Мятежник скачать торрент
    Мятежник смотреть онлайн
    Cкачать фильм Мятежник бесплатно
    Мятежник скачать торрент в хорошем качестве
    Мятежник смотреть онлайн бесплатно в хорошем качестве


    Вы не можете начинать темы
    Вы не можете отвечать на сообщения
    Вы не можете редактировать свои сообщения
    Вы не можете удалять свои сообщения
    Вы не можете голосовать в опросах
    Вы не можете прикреплять файлы к сообщениям
    Вы можете скачивать файлы