1 сезон

1 сезон

iTunes

1

КиноПоиск HD

Кинопоиск HD

iTunes

13

1 сезон

RePack

30

Ultimate

ВАЖНО

ИГРА 18+

pack

RePack

MK11
pack

Легкие деньги

RePack

jed

RePack

fifa19

RePack

RDR2

RePack

NEED FOR SPEED™ PAYBACK

4 сезон

9 сезон

Бесстыжие 9 сезон

Все сериалы

все сериалы на PB.wtf

RePack

FAR CRY 5
  
Magnet ссылка

Преимущества путешествий поездами / Ventajas de viajar en tren (Аритс Морено) [2019 г., комедия, криминал, BDRip (1080p), Авторский (Андрей Дольский)] piratbit.pw

Преимущества путешествий поездами через торрент piratbit.pw

Размер: 9.24 GB | Добавлен: 5 мес. 25 д. назад | Торрент скачан:5 раз
Скачать  

28-10-2020 08:21 Преимущества путешествий поездами Скачать торрент  

Преимущества путешествий поездами / Ventajas de viajar en tren
Год выпуска: 2019
Страна: Испания, Франция
Жанр: комедия, криминал
Продолжительность: 01:43:15
Перевод: Авторский (Андрей Дольский) +испанский
Субтитры: английские

Режиссер: Аритс Морено

В ролях: Луис Тосар, Пилар Кастро, Эрнесто Альтерио, Ким Гутьеррес, Белен Куэста, Макарена Гарсиа, Хавьер Годино, Хавьер Ботет, Стефани Маньен Велла, Жильбер Мелки

Описание: Импозантный мужчина в поезде знакомится с молодой женщиной Хельгой Пато. Он представляется психиатром Анхелем Санагустином и рассказывает о самом кошмарном случае из своей практики – истории параноика. Она скорее напоминает причудливые сказки «Тысячи и одной ночи», но оказывается лишь началом череды поразительных происшествий, погружающих Хельгу в водоворот безумия, перверсий и маний...

Качество: BDRip (1080p)
Формат: MKV
Видео кодек: AVC
Аудио кодек: DTS
Видео: MPEG-4 AVC, (1920x802),11300 Кбит/с, 24.000 кадра/сек
Аудио#1: DTS, 6 ch,768 kbps (Rus) 48.0 KHz авторский, (Андрей Дольский)
Аудио#2: DTS, 6 ch,768 kbps (Span) 48.0 KHz испанский
скриншот   скриншот   скриншот  

Название: Преимущества путешествий поездами.2019.BDRip (1080p)
:
Тип потока: Видео
Длительность: 01:43:15
Кодек: AVC
Кодек/описание: Advanced Video Codec
Кодек/профиль: High@L4.1
Кодек/ID: V_MPEG4/ISO/AVC
Кодек/CABAC: Yes
Кодек/ReFrames: 5 frames
Размеры изображения: 1920 x 802 (2.40:1)
Частота кадров: 24.000 fps
Частота кадров/тип: Constant
Размер потока: 7.95 GiB (86%)
Битрейт: 11.0 Mbps
Библиотека кодирования: x264 core 161 r3018 db0d417
Цветовое пространство: YUV
Тип развёртки: Progressive
Колориметрия: 4:2:0
Глубина: 8 bits
Настройки кодирования: cabac=1 / ref=5 / deblock=1:-2:-2 / analyse=0x3:0x113 / me=umh / subme=11 / psy=1 / psy_rd=1.00:0.00 / mixed_ref=1 / me_range=32 / chroma_me=1 / trellis=2 / 8x8dct=1 / cqm=0 / deadzone=21,11 / fast_pskip=0 / chroma_qp_offset=-2 / threads=6 / lookahead_threads=1 / sliced_threads=0 / nr=0 / decimate=1 / interlaced=0 / bluray_compat=0 / constrained_intra=0 / bframes=8 / b_pyramid=2 / b_adapt=2 / b_bias=0 / direct=1 / weightb=1 / open_gop=0 / weightp=2 / keyint=230 / keyint_min=23 / scenecut=40 / intra_refresh=0 / rc_lookahead=40 / rc=crf / mbtree=0 / crf=17.5 / qcomp=0.60 / qpmin=0 / qpmax=69 / qpstep=4 / vbv_maxrate=50000 / vbv_bufsize=62500 / crf_max=0.0 / nal_hrd=none / filler=0 / ip_ratio=1.40 / pb_ratio=1.30 / aq=1:1.00
:
Тип потока: Звук #1
Язык: Russian
Название: Андрей Дольский
Длительность: 01:43:15.625
Кодек: DTS
Кодек/описание: Digital Theater Systems
Кодек/ID: A_DTS
Частота дискретизации: 48.0 KHz
Каналов: 6 channels
Битрейт: 768 Kbps
Битрейт/тип: Constant
Размер потока: 567 MiB (6%)
Глубина: 16 bits
Метод сжатия: Lossy
:
Тип потока: Звук #2
Язык: Spanish
Название: оригинал
Длительность: 01:43:15.625
Кодек: DTS
Кодек/описание: Digital Theater Systems
Кодек/ID: A_DTS
Частота дискретизации: 48.0 KHz
Каналов: 6 channels
Битрейт: 768 Kbps
Битрейт/тип: Constant
Размер потока: 567 MiB (6%)
Глубина: 24 bits
Метод сжатия: Lossy
:
Тип потока: Субтитры #1
Язык: English
Формат: UTF-8
Формат/подробно: UTF-8 Plain Text
Название: английские

piratbit.pw



Скачать Преимущества путешествий поездами через торрент https://pic1.kartinco.top/images/12/qbkz6.jpg Скачать фильм Преимущества путешествий поездами через торрент бесплантно в хорошем качестве Описание: Импозантный мужчина в поезде знакомится с молодой женщиной Хельгой Пато. Он представляется психиатром Анхелем Санагустином и ... 10 10 1
Торрент: Зарегистрирован [2020-10-28 08:21] · скачан: 5 раз
Статус: √ проверено
Размер: 9.24 GB
Как cкачать? Как скачать Преимущества путешествий поездами через торрент | UTorrent

% Раздел Тема Автор DL S | L
Фильмы с авторской озвучкой [ 4.34 GB ] Преимущества путешествий поездами / Ventajas de viajar en tren [2019 BDRip Авторский ] Бумер Скачать
1 | 0
Фильмы с авторской озвучкой [ 2.24 GB ] Преимущества путешествий поездами / Ventajas de viajar en tren [2019 BDRip-AVC Андрей ] Бумер Скачать
1 | 0

28-11-2019 20:33  

Отключить всю рекламу на сайте

    Дорогой пользователь! Огромная просьба, поблагодарите релизера, оцените раздачу и оставьте свои комментарий, если Вы скачали Преимущества путешествий поездами через торрент бесплатно! Внесите свою лепту в развитие PiratBit!
    Комментировать посты могут только пользователи прошедшие не сложную регистрацию
    Показать сообщения:    

    Преимущества путешествий поездами через торрент
    Скачать бесплатно Преимущества путешествий поездами
    Преимущества путешествий поездами скачать торрент
    Преимущества путешествий поездами смотреть онлайн
    Cкачать фильм Преимущества путешествий поездами бесплатно
    Преимущества путешествий поездами скачать торрент в хорошем качестве
    Преимущества путешествий поездами смотреть онлайн бесплатно в хорошем качестве


    Вы не можете начинать темы
    Вы не можете отвечать на сообщения
    Вы не можете редактировать свои сообщения
    Вы не можете удалять свои сообщения
    Вы не можете голосовать в опросах
    Вы не можете прикреплять файлы к сообщениям
    Вы можете скачивать файлы