Ссылка на приватное зеркало нашего сайта всего за 1$. Внимание количество ограничено!!!

2 сезон

iTunes

1 сезон

1

2 сезон

2 сезон

iTunes

1 сезон

RePack

30

Ultimate

ВАЖНО

ИГРА 18+

pack

RePack

MK11
pack

Забери бонус

RePack

jed

!!Акция!!

Alien_Rage

RePack

fifa19

RePack

Assassins Creed: Odyssey

RePack

NEED FOR SPEED™ PAYBACK

4 сезон

9 сезон

Бесстыжие 9 сезон

Все сериалы

все сериалы на PB.wtf

RePack

FAR CRY 5
  

Ведьмы / The Witches (Роберт Земекис) [2020, Фэнтези, комедия, детектив, приключения, семейный, WEB-DLRip-AVC] [MVO] [HDRezka Studio] от ExKinoRay piratbit.pw

Ведьмы через торрент piratbit.pw

Раздают: 164 [ 622 KB/s ] Качают: 3 [ 0 KB/s ]
Размер: 1.45 GB | Добавлен: 1 мес. 2 д. назад | Торрент скачан:471 раз
Скачать  

27-10-2020 21:55 Ведьмы Скачать торрент  

Название: Ведьмы
Оригинальное название: The Witches
Год выхода: 2020
Жанр: Фэнтези, комедия, детектив, приключения, семейный
Режиссер: Роберт Земекис
В ролях: Энн Хэтэуэй, Октавия Спенсер, Стэнли Туччи, Крис Рок, Коди-Лей Истик, Чарльз Эдвардс, Моргана Робинсон, Джазир Бруно, Евгения Карузо, Саймон Маньонда

Описание: Ведьмы существуют, и они среди нас! Знаменитую книгу Даля заново откроют для современных зрителей. Визуально инновационные «Ведьмы» Земекиса расскажут полную мрачного юмора и в то же время трогательную историю юного сироты. В конце 1967 года мальчик переезжает к своей любимой бабушке в Демополис, сельский городок в Алабаме. Там они случайно сталкиваются с обманчиво обаятельными и дьявольски коварными ведьмами, поэтому бабуля мудро увозит нашего юного героя на роскошный морской курорт. Увы, они приезжают туда ровно тогда, когда Величайшая Самая Главная Ведьма собирает – конечно же, тайно – последовательниц со всего света, чтобы воплотить свои страшные злодейские планы.

rating

Страна: Мексика, США
Студия: Warner Bros., ImageMovers, Double Dare You
Продолжительность: 01:44:12
Перевод: Профессиональный многоголосый | HDRezka Studio

Формат: MKV
Качество: WEB-DLRip-AVC
Видео: MPEG-4 AVC, 720x302, 1546 Kbps, 23.976 fps
Аудио : AC3, 48.0 KHz, 6 ch, 448 kbps | RUS |
Субтитры: Русские (Forced), английские
General
Unique ID : 225143073488289560528094325456853879626 (0xA960FA8C1972AF17B4AE5BB0524D4B4A)
Complete name : F:The.Witches.2020.WEB-DL.AVC.ExKinoRay.mkv
Format : Matroska
Format version : Version 2
File size : 1.45 GiB
Duration : 1 h 44 min
Overall bit rate : 1 994 kb/s
Movie name : The Witches 2020 from ExKinoRay
Encoded date : UTC 2020-10-25 17:23:04
Writing application : mkvmerge v5.6.0 ('Kenya Kane') built on May 27 2012 16:44:04
Writing library : libebml v1.2.3 + libmatroska v1.3.0
Cover : Yes
Attachments : cover.jpg

Video
ID : 1
Format : AVC
Format/Info : Advanced Video Codec
Format profile : High@L4.1
Format settings, CABAC : Yes
Format settings, ReFrames : 12 frames
Codec ID : V_MPEG4/ISO/AVC
Duration : 1 h 44 min
Bit rate : 1 546 kb/s
Width : 720 pixels
Height : 302 pixels
Display aspect ratio : 2.40:1
Frame rate mode : Constant
Frame rate : 23.976 (24000/1001) FPS
Original frame rate : 23.976 (23976/1000) FPS
Color space : YUV
Chroma subsampling : 4:2:0
Bit depth : 8 bits
Scan type : Progressive
Bits/(Pixel*Frame) : 0.297
Stream size : 1.10 GiB (76%)
Title : Enigma
Writing library : x264 core 152 r2851 ba24899
Encoding settings : cabac=1 / ref=12 / deblock=1:-3:-3 / analyse=0x3:0x113 / me=umh / subme=10 / psy=1 / psy_rd=1.03:0.05 / mixed_ref=1 / me_range=32 / chroma_me=1 / trellis=2 / 8x8dct=1 / cqm=0 / deadzone=21,11 / fast_pskip=0 / chroma_qp_offset=-3 / threads=9 / lookahead_threads=1 / sliced_threads=0 / nr=0 / decimate=0 / interlaced=0 / bluray_compat=0 / constrained_intra=0 / bframes=9 / b_pyramid=2 / b_adapt=2 / b_bias=0 / direct=3 / weightb=1 / open_gop=0 / weightp=2 / keyint=240 / keyint_min=23 / scenecut=40 / intra_refresh=0 / rc=2pass / mbtree=0 / bitrate=1546 / ratetol=1.0 / qcomp=0.60 / qpmin=0 / qpmax=51 / qpstep=4 / cplxblur=20.0 / qblur=0.5 / ip_ratio=1.30 / pb_ratio=1.20 / aq=1:1.00
Default : Yes
Forced : No
Color range : Limited
Color primaries : BT.709
Transfer characteristics : BT.709
Matrix coefficients : BT.709

Audio
ID : 2
Format : AC-3
Format/Info : Audio Coding 3
Mode extension : CM (complete main)
Format settings, Endianness : Big
Codec ID : A_AC3
Duration : 1 h 44 min
Bit rate mode : Constant
Bit rate : 448 kb/s
Channel(s) : 6 channels
Channel positions : Front: L C R, Side: L R, LFE
Sampling rate : 48.0 kHz
Frame rate : 31.250 FPS (1536 spf)
Compression mode : Lossy
Stream size : 334 MiB (22%)
Title : MVO (HDrezka Studio)
Language : Russian
Default : Yes
Forced : No

Text #1
ID : 3
Format : UTF-8
Codec ID : S_TEXT/UTF8
Codec ID/Info : UTF-8 Plain Text
Title : Forced
Language : Russian
Default : Yes
Forced : No

Text #2
ID : 4
Format : UTF-8
Codec ID : S_TEXT/UTF8
Codec ID/Info : UTF-8 Plain Text
Language : English
Default : No
Forced : No


Релиз от:

Автор релиза: piratbit.pw



Скачать Ведьмы через торрент https://a.radikal.ru/a34/2010/7f/683610eebe3b.jpg Скачать фильм Ведьмы через торрент бесплантно в хорошем качестве Описание: Ведьмы существуют, и они среди нас! Знаменитую книгу Даля заново откроют для современных зрителей. Визуально инновационные ... 9.8 10 9
Info! Золотая раздача, скачанное не засчитывается.
Торрент: Зарегистрирован [2020-10-27 21:55] · скачан: 471 раз
Статус: √ проверено
Размер: 1.45 GB
Как cкачать? Как скачать Ведьмы через торрент | qTorrent

28-11-2019 20:33  

Отключить всю рекламу на сайте

29-10-2020 07:25 Ведьмы Скачать торрент  

А сэмпл уже не требуется сейчас выкладывать в раздачах?piratbit.pw



    Дорогой пользователь! Огромная просьба, поблагодарите релизера, оцените раздачу и оставьте свои комментарий, если Вы скачали Ведьмы через торрент бесплатно! Внесите свою лепту в развитие PiratBit!
    Комментировать посты могут только пользователи прошедшие не сложную регистрацию
    Показать сообщения:    

    Ведьмы через торрент
    Скачать бесплатно Ведьмы
    Ведьмы скачать торрент
    Ведьмы смотреть онлайн
    Cкачать фильм Ведьмы бесплатно
    Ведьмы скачать торрент в хорошем качестве
    Ведьмы смотреть онлайн бесплатно в хорошем качестве


    Вы не можете начинать темы
    Вы не можете отвечать на сообщения
    Вы не можете редактировать свои сообщения
    Вы не можете удалять свои сообщения
    Вы не можете голосовать в опросах
    Вы не можете прикреплять файлы к сообщениям
    Вы можете скачивать файлы