1 сезон

1 сезон

iTunes

1

КиноПоиск HD

Кинопоиск HD

iTunes

13

1 сезон

RePack

30

Deluxe

ВАЖНО

ИГРА 18+

pack

RePack

MK11
pack

Легкие деньги

RePack

jed

RePack

fifa19

RePack

RDR2

RePack

NEED FOR SPEED™ PAYBACK

4 сезон

9 сезон

Бесстыжие 9 сезон

Все сериалы

все сериалы на PB.wtf

RePack

FAR CRY 5
  
Magnet ссылка

Признания голливудской старлетки / True Confessions of a Hollywood Starlet (Тим Мэтисон) [2008, Комедия, драма, семейный, WEB-DLRip-AVC] [DVO] от Mediabit piratbit.pw

Признания голливудской старлетки через торрент piratbit.pw

Размер: 1.43 GB | Добавлен: 6 мес. назад | Торрент скачан:3 раза
Скачать  

27-10-2020 19:28 Признания голливудской старлетки Скачать торрент  


Признания голливудской старлетки / True Confessions of a Hollywood Starlet
Информация о фильме:
Название: Признания голливудской старлетки
Оригинальное название: True Confessions of a Hollywood Starlet
Год выхода: 2008
Жанр: Комедия, драма, семейный
Режиссер: Тим Мэтисон
В ролях: Джоанна «ДжоДжо» Левески, Иэн Нельсон, Луис Феррейра, Линда Бойд, Шеней Граймс, Дженнифер Миллер, Мелани Лишман, Леа Рени Кадмор, Валери Бертинелли, Дэйна Девон

Описание: Молодая актриса Морган Картер находится на пике успеха. В свои семнадцать, она привлекательна и достаточно известна. Голливуд ослепляет огнями премьер, вечеринок и искушает соблазнами. Последняя вечеринка настолько удалась, что для Морган вечер закончился в больнице, с алкогольным отравлением. Мать Морган, решая уберечь дочь от испытания славой, отправляет ее в Индиану, к тетке. Но смирится ли вкусившая звездности Морган, с предложенной новой ролью послушной девочки?



Страна: США
Студия: Lifetime, Starlet Productions
Продолжительность: 01:27:13
Перевод: Профессиональный (двухголосый, закадровый)



Информация о файле:
Кодек: AVC
Формат: MKV
Качество: WEB-DLRip-AVC
Видео: MPEG-4 AVC, 1024x576 (16:9), 23.976 fps, 1450 kbps, 0.103
Аудио RU: AC3, 6 ch, 48 kHz, 448 kbps
Аудио EN: AC3, 6 ch, 48 kHz, 448 kbps
Субтитры: Английские
Навигация по главам: Нет

General
Unique ID : 58187370234569621980869002973778215921 (0x2BC67AD8E4091C0A731F5CA8F6BF03F1)
Complete name : D:uTorrentРипы_от_wolf1245_MediaBitTrue Confessions of a Hollywood Starlet (2008) from wolf1245 & MediaBit.mkv
Format : Matroska
Format version : Version 4
File size : 1.43 GiB
Duration : 1 h 27 min
Overall bit rate : 2 348 kb/s
Movie name : True Confessions of a Hollywood Starlet (2008) from wolf1245 & MediaBit
Encoded date : UTC 2020-10-27 19:13:41
Writing application : mkvmerge v51.0.0 ('I Wish') 64-bit
Writing library : libebml v1.4.0 + libmatroska v1.6.2
Attachments : poster

Video
ID : 1
Format : AVC
Format/Info : Advanced Video Codec
Format profile : High@L4.1
Format settings : CABAC / 11 Ref Frames
Format settings, CABAC : Yes
Format settings, Reference frames : 11 frames
Codec ID : V_MPEG4/ISO/AVC
Duration : 1 h 27 min
Bit rate : 1 450 kb/s
Width : 1 024 pixels
Height : 576 pixels
Display aspect ratio : 16:9
Frame rate mode : Constant
Frame rate : 23.976 (24000/1001) FPS
Color space : YUV
Chroma subsampling : 4:2:0
Bit depth : 8 bits
Scan type : Progressive
Bits/(Pixel*Frame) : 0.103
Stream size : 905 MiB (62%)
Title : wolf1245 & MediaBit
Writing library : x264 core 157 r2958 57baac4
Encoding settings : cabac=1 / ref=11 / deblock=1:-3:-3 / analyse=0x3:0x133 / me=umh / subme=11 / psy=1 / psy_rd=1.03:0.03 / mixed_ref=1 / me_range=48 / chroma_me=1 / trellis=2 / 8x8dct=1 / cqm=0 / deadzone=21,11 / fast_pskip=0 / chroma_qp_offset=-3 / threads=10 / lookahead_threads=2 / sliced_threads=0 / nr=0 / decimate=0 / interlaced=0 / bluray_compat=0 / constrained_intra=0 / bframes=11 / b_pyramid=2 / b_adapt=2 / b_bias=0 / direct=3 / weightb=1 / open_gop=0 / weightp=2 / keyint=240 / keyint_min=24 / scenecut=40 / intra_refresh=0 / rc_lookahead=60 / rc=2pass / mbtree=0 / bitrate=1450 / ratetol=1.0 / qcomp=0.60 / qpmin=0 / qpmax=69 / qpstep=4 / cplxblur=20.0 / qblur=0.5 / vbv_maxrate=50000 / vbv_bufsize=62500 / nal_hrd=none / filler=0 / ip_ratio=1.40 / pb_ratio=1.30 / aq=2:0.90
Language : English
Default : Yes
Forced : No
Color range : Limited
Color primaries : BT.709
Transfer characteristics : BT.709
Matrix coefficients : BT.709

Audio #1
ID : 2
Format : AC-3
Format/Info : Audio Coding 3
Commercial name : Dolby Digital
Codec ID : A_AC3
Duration : 1 h 27 min
Bit rate mode : Constant
Bit rate : 448 kb/s
Channel(s) : 6 channels
Channel layout : L R C LFE Ls Rs
Sampling rate : 48.0 kHz
Frame rate : 31.250 FPS (1536 SPF)
Compression mode : Lossy
Stream size : 279 MiB (19%)
Title : DVO
Language : Russian
Service kind : Complete Main
Default : Yes
Forced : No

Audio #2
ID : 3
Format : AC-3
Format/Info : Audio Coding 3
Commercial name : Dolby Digital
Codec ID : A_AC3
Duration : 1 h 27 min
Bit rate mode : Constant
Bit rate : 448 kb/s
Channel(s) : 6 channels
Channel layout : L R C LFE Ls Rs
Sampling rate : 48.0 kHz
Frame rate : 31.250 FPS (1536 SPF)
Compression mode : Lossy
Stream size : 279 MiB (19%)
Title : Original
Language : English
Service kind : Complete Main
Default : No
Forced : No

Text
ID : 4
Format : UTF-8
Codec ID : S_TEXT/UTF8
Codec ID/Info : UTF-8 Plain Text
Duration : 1 h 25 min
Bit rate : 90 b/s
Count of elements : 1933
Stream size : 56.8 KiB (0%)
Language : English
Default : No
Forced : No
& &
piratbit.pw



Скачать Признания голливудской старлетки через торрент https://a.radikal.ru/a16/2010/e3/785a2d609076.jpg Скачать фильм Признания голливудской старлетки через торрент бесплантно в хорошем качестве Описание: Молодая актриса Морган Картер находится на пике успеха. В свои семнадцать, она привлекательна и достаточно известна. Голливуд ... 5 10 1
Торрент: Зарегистрирован [2020-10-27 19:28] · скачан: 3 раз
Статус: √ проверено
Размер: 1.43 GB
Как cкачать? Как скачать Признания голливудской старлетки через торрент | UTorrent

28-11-2019 20:33  

Отключить всю рекламу на сайте

    Дорогой пользователь! Огромная просьба, поблагодарите релизера, оцените раздачу и оставьте свои комментарий, если Вы скачали Признания голливудской старлетки через торрент бесплатно! Внесите свою лепту в развитие PiratBit!
    Комментировать посты могут только пользователи прошедшие не сложную регистрацию
    Показать сообщения:    

    Признания голливудской старлетки через торрент
    Скачать бесплатно Признания голливудской старлетки
    Признания голливудской старлетки скачать торрент
    Признания голливудской старлетки смотреть онлайн
    Cкачать фильм Признания голливудской старлетки бесплатно
    Признания голливудской старлетки скачать торрент в хорошем качестве
    Признания голливудской старлетки смотреть онлайн бесплатно в хорошем качестве


    Вы не можете начинать темы
    Вы не можете отвечать на сообщения
    Вы не можете редактировать свои сообщения
    Вы не можете удалять свои сообщения
    Вы не можете голосовать в опросах
    Вы не можете прикреплять файлы к сообщениям
    Вы можете скачивать файлы