Ссылка на приватное зеркало нашего сайта всего за 1$. Внимание количество ограничено!!!

2 сезон

iTunes

1 сезон

1

2 сезон

2 сезон

iTunes

1 сезон

RePack

30

Новинка

ВАЖНО

ИГРА 18+

pack

RePack

MK11
pack

Забери бонус

RePack

jed

!!Акция!!

Alien_Rage

RePack

fifa19

RePack

Assassins Creed: Odyssey

RePack

NEED FOR SPEED™ PAYBACK

4 сезон

9 сезон

Бесстыжие 9 сезон

Все сериалы

все сериалы на PB.wtf

RePack

FAR CRY 5
  

Девушка из долины / Valley Girl (Рэйчел Голденберг) [2020, Мюзикл, мелодрама, комедия, HDRip-AVC] [MVO] [Greb & Creative] | от Mediabit piratbit.pw

Девушка из долины через торрент piratbit.pw

Размер: 1.42 GB | Добавлен: 1 мес. 2 д. назад | Торрент скачан:23 раза
Скачать  

25-10-2020 18:59 Девушка из долины Скачать торрент  


Девушка из долины / Valley Girl
Информация о фильме:
Название: Девушка из долины
Оригинальное название: Valley Girl
Год выхода: 2020
Жанр: Мюзикл, мелодрама, комедия
Режиссер: Рэйчел Голденберг
В ролях: Джош Уайтхаус, Мэй Уитман, Хлоя Беннет, Джессика Рот, Пейтон Лист (II), Логан Пол, Эллин Рэйчел, Джош Фэйдем, Джесси Эннис, Эшли Мюррэй

Описание: Руби, только что расставшейся со своим парнем, ее мама Джули рассказывает историю своей юности, пришедшейся на бурные 1980-е. Именно тогда Джули, приличная девочка из хорошей семьи, переживающая кризис отношений с высокомерным спортсменом Микки, неожиданно встречает на пляже Лос-Анджелеса музыканта-панка Рэнди, в которого девушка влюбляется, несмотря на то, что и друзья, и родители выступают против этих чувств.



Страна: США
Студия: Metro-Goldwyn-Mayer (MGM), Sneak Preview Productions
Продолжительность: 01:42:45
Перевод: Профессиональный (многоголосый, закадровый) - Greb & Creative по заказу море тв



Информация о файле:
Кодек: AVC
Формат: MKV
Качество: HDRip-AVC
Видео: MPEG-4 AVC, 1024x554 (1.85:1), 23.976 fps, 1786 kbps, 0.131
Аудио RU: AC3, 2 ch, 48 kHz, 192 kbps
Субтитры: Английские
Навигация по главам: Да

General
Unique ID : 332831897021364600499142533887235764139 (0xFA651779219698F2674220A1F810AFAB)
Complete name : D:uTorrentРипы_от_wolf1245_MediaBitValley Girl (2020) HDRip-AVC from wolf1245 & MediaBit.mkv
Format : Matroska
Format version : Version 4
File size : 1.42 GiB
Duration : 1 h 42 min
Overall bit rate : 1 980 kb/s
Movie name : Valley Girl (2020) HDRip-AVC from wolf1245 & MediaBit
Encoded date : UTC 2020-10-25 18:45:13
Writing application : mkvmerge v51.0.0 ('I Wish') 64-bit
Writing library : libebml v1.4.0 + libmatroska v1.6.2

Video
ID : 1
Format : AVC
Format/Info : Advanced Video Codec
Format profile : High@L4.1
Format settings : CABAC / 11 Ref Frames
Format settings, CABAC : Yes
Format settings, Reference frames : 11 frames
Codec ID : V_MPEG4/ISO/AVC
Duration : 1 h 42 min
Bit rate : 1 786 kb/s
Width : 1 024 pixels
Height : 554 pixels
Display aspect ratio : 1.85:1
Frame rate mode : Constant
Frame rate : 23.976 (24000/1001) FPS
Color space : YUV
Chroma subsampling : 4:2:0
Bit depth : 8 bits
Scan type : Progressive
Bits/(Pixel*Frame) : 0.131
Stream size : 1.28 GiB (90%)
Title : wolf1245 & MediaBit
Writing library : x264 core 157 r2958 57baac4
Encoding settings : cabac=1 / ref=11 / deblock=1:-3:-3 / analyse=0x3:0x133 / me=umh / subme=11 / psy=1 / psy_rd=1.02:0.05 / mixed_ref=1 / me_range=48 / chroma_me=1 / trellis=2 / 8x8dct=1 / cqm=0 / deadzone=21,11 / fast_pskip=0 / chroma_qp_offset=-3 / threads=10 / lookahead_threads=2 / sliced_threads=0 / nr=0 / decimate=0 / interlaced=0 / bluray_compat=0 / constrained_intra=0 / bframes=11 / b_pyramid=2 / b_adapt=2 / b_bias=0 / direct=3 / weightb=1 / open_gop=0 / weightp=2 / keyint=240 / keyint_min=24 / scenecut=40 / intra_refresh=0 / rc_lookahead=60 / rc=2pass / mbtree=0 / bitrate=1786 / ratetol=1.0 / qcomp=0.60 / qpmin=0 / qpmax=69 / qpstep=4 / cplxblur=20.0 / qblur=0.5 / vbv_maxrate=50000 / vbv_bufsize=62500 / nal_hrd=none / filler=0 / ip_ratio=1.40 / pb_ratio=1.30 / aq=2:0.80
Language : English
Default : Yes
Forced : No
Color range : Limited
Color primaries : BT.709
Matrix coefficients : BT.709

Audio
ID : 2
Format : AC-3
Format/Info : Audio Coding 3
Commercial name : Dolby Digital
Codec ID : A_AC3
Duration : 1 h 42 min
Bit rate mode : Constant
Bit rate : 192 kb/s
Channel(s) : 2 channels
Channel layout : L R
Sampling rate : 48.0 kHz
Frame rate : 31.250 FPS (1536 SPF)
Compression mode : Lossy
Stream size : 141 MiB (10%)
Title : MVO | Greb & Creative
Language : Russian
Service kind : Complete Main
Default : Yes
Forced : No

Text
ID : 3
Format : UTF-8
Codec ID : S_TEXT/UTF8
Codec ID/Info : UTF-8 Plain Text
Duration : 1 h 41 min
Bit rate : 66 b/s
Count of elements : 1585
Stream size : 49.6 KiB (0%)
Language : English
Default : No
Forced : No

Menu
00:00:00.000 : :Chapter 01
00:09:45.293 : :Chapter 02
00:15:58.916 : :Chapter 03
00:22:00.611 : :Chapter 04
00:27:38.448 : :Chapter 05
00:36:31.898 : :Chapter 06
00:45:39.528 : :Chapter 07
00:53:35.712 : :Chapter 08
01:01:53.251 : :Chapter 09
01:09:42.511 : :Chapter 10
01:18:54.730 : :Chapter 11
01:24:22.724 : :Chapter 12
01:31:10.465 : :Chapter 13
01:36:36.708 : :Chapter 14
& &
piratbit.pw



Скачать Девушка из долины через торрент https://a.radikal.ru/a09/2010/18/a3e8023b3c39.png Скачать фильм Девушка из долины через торрент бесплантно в хорошем качестве Описание: Руби, только что расставшейся со своим парнем, ее мама Джули рассказывает историю своей юности, пришедшейся на бурные 1980-е. ... 10 10 3
Торрент: Зарегистрирован [2020-10-25 18:59] · скачан: 23 раз
Статус: √ проверено
Размер: 1.42 GB
Как cкачать? Как скачать Девушка из долины через торрент | qTorrent

28-11-2019 20:33  

Отключить всю рекламу на сайте

    Дорогой пользователь! Огромная просьба, поблагодарите релизера, оцените раздачу и оставьте свои комментарий, если Вы скачали Девушка из долины через торрент бесплатно! Внесите свою лепту в развитие PiratBit!
    Комментировать посты могут только пользователи прошедшие не сложную регистрацию
    Показать сообщения:    

    Девушка из долины через торрент
    Скачать бесплатно Девушка из долины
    Девушка из долины скачать торрент
    Девушка из долины смотреть онлайн
    Cкачать фильм Девушка из долины бесплатно
    Девушка из долины скачать торрент в хорошем качестве
    Девушка из долины смотреть онлайн бесплатно в хорошем качестве


    Вы не можете начинать темы
    Вы не можете отвечать на сообщения
    Вы не можете редактировать свои сообщения
    Вы не можете удалять свои сообщения
    Вы не можете голосовать в опросах
    Вы не можете прикреплять файлы к сообщениям
    Вы можете скачивать файлы