Ссылка на приватное зеркало нашего сайта всего за 1$. Внимание количество ограничено!!!

2 сезон

iTunes

1 сезон

1

2 сезон

2 сезон

iTunes

1 сезон

RePack

30

Ultimate

ВАЖНО

ИГРА 18+

pack

RePack

MK11
pack

Забери бонус

RePack

jed

!!Акция!!

Alien_Rage

RePack

fifa19

RePack

Assassins Creed: Odyssey

RePack

NEED FOR SPEED™ PAYBACK

4 сезон

9 сезон

Бесстыжие 9 сезон

Все сериалы

все сериалы на PB.wtf

RePack

FAR CRY 5
  

3022 / 3022 (Джон Суитц) [2019, Фантастика, триллер, драма, HDRip-AVC] [MVO] [Синема Ус ] от MediaBit piratbit.pw

3022 через торрент piratbit.pw

Раздают: 2 [ 0 KB/s ]
Размер: 774 MB | Добавлен: 1 мес. 5 д. назад | Торрент скачан:81 раз
Скачать  

22-10-2020 17:27 3022 Скачать торрент  


3022 / 3022
Информация о фильме:
Название: 3022
Оригинальное название: 3022
Год выхода: 2019
Жанр: Фантастика, триллер, драма
Режиссер: Джон Суитц
В ролях: Омар Эппс, Кейт Уолш, Миранда Косгров, Энгус Макфадьен, Джоржа Фокс, Энвер Гьокай, Хааз Слейман, Одри Луи, Брент Йошида, Фейт Алексис Оливер

Описание: В недалеком будущем человечество осваивает ближайший космос и строит Европу-1 – колонию на орбите Юпитера. Для лучшего сообщения между Землей и газовым гигантом была создана Пангея – международная топливная станция, куда каждые десять лет на дежурство заступает команда из четырех человек из определенной страны. К 2190 году оборудование сильно изнашивается, тем не менее на станцию прибывает группа американских астронавтов, сменив китайский экипаж. На пятый год дежурства связь с Землей внезапно обрывается...



Страна: США
Студия: BondIt Media Capital, Hideout Pictures, The Squid Farm
Продолжительность: 01:31:40
Перевод: Любительский (многоголосый, закадровый) - Синема Ус



Информация о файле:
Кодек: AVC
Формат: MKV
Качество: HDRip-AVC
Видео: MPEG-4 AVC, 720x270 (2.667), 23.976 fps, 1051 kb/s, 0.255
Аудио RU: AAC-HE, 2 ch, 48 kHz, 96 kbps
Субтитры: Английские
Навигация по главам: Есть

General
Unique ID : 246196176040229908110121835581896348849 (0xB937A8A4B052692AC73D2BFDC56754B1)
Complete name : D:uTorrent3022 - 3022 (2019) from wolf1245 & MediaBit.mkv
Format : Matroska
Format version : Version 4
File size : 774 MiB
Duration : 1 h 31 min
Overall bit rate : 1 180 kb/s
Movie name : 3022 / 3022 (2019) from wolf1245 & MediaBit
Encoded date : UTC 2020-10-22 17:15:38
Writing application : mkvmerge v51.0.0 ('I Wish') 64-bit
Writing library : libebml v1.4.0 + libmatroska v1.6.2

Video
ID : 1
Format : AVC
Format/Info : Advanced Video Codec
Format profile : High@L4.1
Format settings : CABAC / 11 Ref Frames
Format settings, CABAC : Yes
Format settings, Reference frames : 11 frames
Codec ID : V_MPEG4/ISO/AVC
Duration : 1 h 31 min
Bit rate : 1 051 kb/s
Width : 720 pixels
Height : 270 pixels
Display aspect ratio : 2.667
Frame rate mode : Constant
Frame rate : 23.976 (24000/1001) FPS
Color space : YUV
Chroma subsampling : 4:2:0
Bit depth : 8 bits
Scan type : Progressive
Bits/(Pixel*Frame) : 0.225
Stream size : 689 MiB (89%)
Title : from wolf1245 & MediaBit
Writing library : x264 core 157 r2958 57baac4
Encoding settings : cabac=1 / ref=11 / deblock=1:-3:-3 / analyse=0x3:0x133 / me=umh / subme=11 / psy=1 / psy_rd=0.98:0.06 / mixed_ref=1 / me_range=48 / chroma_me=1 / trellis=2 / 8x8dct=1 / cqm=0 / deadzone=21,11 / fast_pskip=0 / chroma_qp_offset=-3 / threads=10 / lookahead_threads=2 / sliced_threads=0 / nr=0 / decimate=0 / interlaced=0 / bluray_compat=0 / constrained_intra=0 / bframes=11 / b_pyramid=2 / b_adapt=2 / b_bias=0 / direct=3 / weightb=1 / open_gop=0 / weightp=2 / keyint=240 / keyint_min=24 / scenecut=40 / intra_refresh=0 / rc_lookahead=60 / rc=2pass / mbtree=0 / bitrate=1051 / ratetol=1.0 / qcomp=0.60 / qpmin=0 / qpmax=69 / qpstep=4 / cplxblur=20.0 / qblur=0.5 / vbv_maxrate=50000 / vbv_bufsize=62500 / nal_hrd=none / filler=0 / ip_ratio=1.40 / pb_ratio=1.30 / aq=1:0.80
Language : English
Default : Yes
Forced : No

Audio
ID : 2
Format : AAC LC SBR
Format/Info : Advanced Audio Codec Low Complexity with Spectral Band Replication
Commercial name : HE-AAC
Format settings : Implicit
Codec ID : A_AAC-2
Duration : 1 h 31 min
Bit rate : 96.0 kb/s
Channel(s) : 2 channels
Channel layout : L R
Sampling rate : 48.0 kHz
Frame rate : 23.438 FPS (2048 SPF)
Compression mode : Lossy
Stream size : 62.9 MiB (8%)
Title : MVO [Синема УС] MediaBit
Language : Russian
Default : Yes
Forced : No

Text #1
ID : 3
Format : UTF-8
Codec ID : S_TEXT/UTF8
Codec ID/Info : UTF-8 Plain Text
Duration : 32 min 52 s
Bit rate : 2 b/s
Count of elements : 17
Stream size : 531 Bytes (0%)
Title : English-FORCED-SRT
Language : English
Default : No
Forced : No

Text #2
ID : 4
Format : UTF-8
Codec ID : S_TEXT/UTF8
Codec ID/Info : UTF-8 Plain Text
Duration : 1 h 15 min
Bit rate : 54 b/s
Count of elements : 1016
Stream size : 30.3 KiB (0%)
Title : English-SRT
Language : English
Default : No
Forced : No

Text #3
ID : 5
Format : PGS
Muxing mode : zlib
Codec ID : S_HDMV/PGS
Codec ID/Info : Picture based subtitle format used on BDs/HD-DVDs
Duration : 32 min 52 s
Bit rate : 1 346 b/s
Count of elements : 28
Stream size : 324 KiB (0%)
Title : English-FORCED-PGS
Language : English
Default : No
Forced : No

Text #4
ID : 6
Format : PGS
Muxing mode : zlib
Codec ID : S_HDMV/PGS
Codec ID/Info : Picture based subtitle format used on BDs/HD-DVDs
Duration : 1 h 15 min
Bit rate : 40.5 kb/s
Count of elements : 2038
Stream size : 21.8 MiB (3%)
Title : English-PGS
Language : English
Default : No
Forced : No

Text #5
ID : 7
Format : PGS
Muxing mode : zlib
Codec ID : S_HDMV/PGS
Codec ID/Info : Picture based subtitle format used on BDs/HD-DVDs
Duration : 1 h 26 min
Bit rate : 39.8 kb/s
Count of elements : 2342
Stream size : 24.5 MiB (3%)
Title : English-SDH-PGS
Language : English
Default : No
Forced : No

Menu
00:00:00.000 : :Change
00:07:39.793 : :Problems
00:17:21.749 : :No Contact
00:23:51.555 : :Lisa
00:30:50.849 : :Desire
00:40:01.983 : :Richard
00:47:58.250 : :Party
00:56:30.012 : :Destruction
01:04:20.482 : :Conflict
01:10:50.328 : :Seperated
01:20:14.810 : :Departure
01:28:14.873 : :End Credits
& &
piratbit.pw



Скачать 3022 через торрент https://c.radikal.ru/c07/2010/d6/20ecec751ac2.jpg Скачать фильм 3022 через торрент бесплантно в хорошем качестве Описание: В недалеком будущем человечество осваивает ближайший космос и строит Европу-1 – колонию на орбите Юпитера. Для лучшего ... 10 10 5
Торрент: Зарегистрирован [2020-10-22 17:27] · скачан: 81 раз
Статус: T временная
Размер: 774 MB
Как cкачать? Как скачать 3022 через торрент | qTorrent

% Раздел Тема Автор DL S | L
T Фильмы 2019-2020 [DVDrip, WEB-DLRip, HDrip] (DUB, MVO) [ 1.48 GB ] 3022 / 3022 [2019 HDRip-AVC] [MVO] [Синема Ус ] от MediaBit Lithuania Скачать
8 | 0

28-11-2019 20:33  

Отключить всю рекламу на сайте

    Дорогой пользователь! Огромная просьба, поблагодарите релизера, оцените раздачу и оставьте свои комментарий, если Вы скачали 3022 через торрент бесплатно! Внесите свою лепту в развитие PiratBit!
    Комментировать посты могут только пользователи прошедшие не сложную регистрацию
    Показать сообщения:    

    3022 через торрент
    Скачать бесплатно 3022
    3022 скачать торрент
    3022 смотреть онлайн
    Cкачать фильм 3022 бесплатно
    3022 скачать торрент в хорошем качестве
    3022 смотреть онлайн бесплатно в хорошем качестве


    Вы не можете начинать темы
    Вы не можете отвечать на сообщения
    Вы не можете редактировать свои сообщения
    Вы не можете удалять свои сообщения
    Вы не можете голосовать в опросах
    Вы не можете прикреплять файлы к сообщениям
    Вы можете скачивать файлы