Ссылка на приватное зеркало нашего сайта всего за 1$. Внимание количество ограничено!!!

2 сезон

iTunes

1 сезон

1

2 сезон

2 сезон

iTunes

1 сезон

RePack

30

Ultimate

ВАЖНО

ИГРА 18+

pack

RePack

MK11
pack

Забери бонус

RePack

jed

!!Акция!!

Alien_Rage

RePack

fifa19

RePack

Assassins Creed: Odyssey

RePack

NEED FOR SPEED™ PAYBACK

4 сезон

9 сезон

Бесстыжие 9 сезон

Все сериалы

все сериалы на PB.wtf

RePack

FAR CRY 5
  

Призраки войны / Ghosts of War (Эрик Бресс) [2020, Ужасы, триллер, военный, BDRip-AVC] DUB [iTunes] +MVO [HDRezka Studio] piratbit.pw

Призраки войны через торрент piratbit.pw

Раздают: 3 [ 439 KB/s ]
Размер: 2.69 GB | Добавлен: 1 мес. 6 д. назад | Торрент скачан:42 раза
Скачать  

22-10-2020 09:07 Призраки войны Скачать торрент  

Призраки войны | Ghosts of War
«Страшнее врага только дьявол»

Год выпуска: 2020
Страна: Великобритания
Студия: Miscellaneous Entertainment
Жанр: Ужасы, триллер, военный
Продолжительность: 01:34:45
Перевод:
#1: Дублированный | iTunes
#2: Профессиональный многоголосый | HDRezka Studio
Субтитры: Русские (Forced [for HDRezka Studio], Full)), английские (Full, SDH)

Режиссер: Эрик Бресс

rating

В ролях: Брентон Туэйтс, Тео Росси, Кайл Галлнер, Скайлар Эстин, Алан Ричсон, Билли Зейн, Шон Тоуб, Мэттью Рис (II), Лайла Банки, Шеннон МакКэйн, Нэйтан Купер

Описание: Последние месяцы Второй мировой войны. Французская провинция. Пятеро опытных американских солдат получают приказ охранять замок, в котором еще недавно располагалось нацистское верховное командование. Эта неожиданная передышка перерастает в безумие, когда они сталкиваются со сверхъестественными силами, гораздо более страшными, чем то, что творилось на поле боя.

Качество: BDRip-AVC
Формат: MKV

Видео: 1024x426 (2.40:1), 24 fps, MPEG-4 AVC ~ 2791 Kbps avg, 0.267 bit/pixel
Аудио: AC3, 48 kHz, 6 ch, ~384.00 kbps avg | русский | iTunes
Аудио: AC3, 48 kHz, 6 ch, ~448.00 kbps avg | русский | HDRezka Studio
Аудио: AC3, 48 kHz, 6 ch, ~448.00 kbps avg | английский | Оригинал
скриншот  скриншот  скриншот  скриншот  скриншот  

Общее
Уникальный идентификатор : 338379714324107065260720260636226119867 (0xFE918FFC0095652DEFF8DD9B7B2468BB)
Полное имя : Ghosts.of.War.2020.BDRip.2.69Gb.x264.mkv
Формат : Matroska
Версия формата : Version 4
Размер файла : 2,69 Гбайт
Продолжительность : 1 ч. 34 м.
Общий поток : 4 065 Кбит/сек
Название фильма : Призраки войны / Ghosts of War (2020)
Дата кодирования : UTC 2020-10-22 07:42:25
Программа кодирования : mkvmerge v47.0.0 ('Black Flag') 64-bit
Библиотека кодирования : libebml v1.3.10 + libmatroska v1.5.2
Обложка : Yes
Attachments : cover.jpg

Видео
Идентификатор : 1
Формат : AVC
Формат/Информация : Advanced Video Codec
Профиль формата : High@L4.1
Настройки формата : CABAC / 10 Ref Frames
Параметр CABAC формата : Да
Параметр RefFrames формата : 10 кадров
Идентификатор кодека : V_MPEG4/ISO/AVC
Продолжительность : 1 ч. 34 м.
Битрейт : 2 791 Кбит/сек
Ширина : 1 024 пикселя
Высота : 426 пикселей
Соотношение сторон : 2,40:1
Режим частоты кадров : Постоянный
Частота кадров : 24,000 кадра/сек
Цветовое пространство : YUV
Субдискретизация насыщенности : 4:2:0
Битовая глубина : 8 бит
Тип развёртки : Прогрессивная
Бит/(Пиксели*Кадры) : 0.267
Размер потока : 1,84 Гбайт (68%)
Заголовок : #stillet
Библиотека кодирования : x264 core 152 r2851bm ba24899
Настройки программы : cabac=1 / ref=10 / deblock=1:-2:-2 / analyse=0x3:0x113 / me=umh / subme=10 / psy=1 / psy_rd=1.00:0.15 / mixed_ref=1 / me_range=32 / chroma_me=1 / trellis=2 / 8x8dct=1 / cqm=0 / deadzone=21,11 / fast_pskip=0 / chroma_qp_offset=-3 / threads=8 / lookahead_threads=3 / sliced_threads=0 / nr=0 / decimate=0 / interlaced=0 / bluray_compat=0 / constrained_intra=0 / bframes=11 / b_pyramid=2 / b_adapt=2 / b_bias=0 / direct=3 / weightb=1 / open_gop=0 / weightp=2 / keyint=240 / keyint_min=24 / scenecut=40 / intra_refresh=0 / rc=2pass / mbtree=0 / bitrate=2791 / ratetol=1.0 / qcomp=0.60 / qpmin=0 / qpmax=69 / qpstep=4 / cplxblur=20.0 / qblur=0.5 / ip_ratio=1.40 / pb_ratio=1.30 / aq=1:1.00
Язык : German
Default : Да
Forced : Нет

Аудио #1
Идентификатор : 2
Формат : AC-3
Формат/Информация : Audio Coding 3
Коммерческое название : Dolby Digital
Идентификатор кодека : A_AC3
Продолжительность : 1 ч. 34 м.
Вид битрейта : Постоянный
Битрейт : 384 Кбит/сек
Каналы : 6 каналов
Channel layout : L R C LFE Ls Rs
Частота : 48,0 КГц
Частота кадров : 31,250 кадров/сек (1536 SPF)
Метод сжатия : С потерями
Размер потока : 260 Мбайт (9%)
Заголовок : iTunes
Язык : Russian
Service kind : Complete Main
Default : Да
Forced : Да

Аудио #2
Идентификатор : 3
Формат : AC-3
Формат/Информация : Audio Coding 3
Коммерческое название : Dolby Digital
Идентификатор кодека : A_AC3
Продолжительность : 1 ч. 34 м.
Вид битрейта : Постоянный
Битрейт : 448 Кбит/сек
Каналы : 6 каналов
Channel layout : L R C LFE Ls Rs
Частота : 48,0 КГц
Частота кадров : 31,250 кадров/сек (1536 SPF)
Метод сжатия : С потерями
Размер потока : 304 Мбайт (11%)
Заголовок : MVO | HDRezka Studio
Язык : Russian
Service kind : Complete Main
Default : Нет
Forced : Нет

Аудио #3
Идентификатор : 4
Формат : AC-3
Формат/Информация : Audio Coding 3
Коммерческое название : Dolby Digital
Идентификатор кодека : A_AC3
Продолжительность : 1 ч. 34 м.
Вид битрейта : Постоянный
Битрейт : 448 Кбит/сек
Каналы : 6 каналов
Channel layout : L R C LFE Ls Rs
Частота : 48,0 КГц
Частота кадров : 31,250 кадров/сек (1536 SPF)
Метод сжатия : С потерями
Размер потока : 304 Мбайт (11%)
Язык : English
Service kind : Complete Main
Default : Нет
Forced : Нет

Текст #1
Идентификатор : 5
Формат : UTF-8
Идентификатор кодека : S_TEXT/UTF8
Идентификатор кодека/Информация : UTF-8 Plain Text
Продолжительность : 1 ч. 26 м.
Битрейт : 5 бит/сек
Count of elements : 83
Размер потока : 3,72 Кбайт (0%)
Заголовок : Forced | For HDRezka Studio
Язык : Russian
Default : Да
Forced : Нет

Текст #2
Идентификатор : 6
Формат : UTF-8
Идентификатор кодека : S_TEXT/UTF8
Идентификатор кодека/Информация : UTF-8 Plain Text
Продолжительность : 1 ч. 27 м.
Битрейт : 68 бит/сек
Count of elements : 807
Размер потока : 43,9 Кбайт (0%)
Заголовок : Full
Язык : Russian
Default : Нет
Forced : Нет

Текст #3
Идентификатор : 7
Формат : UTF-8
Идентификатор кодека : S_TEXT/UTF8
Идентификатор кодека/Информация : UTF-8 Plain Text
Продолжительность : 1 ч. 26 м.
Битрейт : 36 бит/сек
Count of elements : 796
Размер потока : 23,2 Кбайт (0%)
Заголовок : Full
Язык : English
Default : Нет
Forced : Нет

Текст #4
Идентификатор : 8
Формат : UTF-8
Идентификатор кодека : S_TEXT/UTF8
Идентификатор кодека/Информация : UTF-8 Plain Text
Продолжительность : 1 ч. 27 м.
Битрейт : 44 бит/сек
Count of elements : 1073
Размер потока : 28,6 Кбайт (0%)
Заголовок : SDH
Язык : English
Default : Нет
Forced : Нет

Меню
00:00:00.000 : de:Глава 01
00:02:47.833 : de:Глава 02
00:09:47.542 : de:Глава 03
00:19:08.625 : de:Глава 04
00:22:22.333 : de:Глава 05
00:25:54.083 : de:Глава 06
00:29:59.292 : de:Глава 07
00:36:36.625 : de:Глава 08
00:46:54.583 : de:Глава 09
00:51:20.500 : de:Глава 10
00:56:07.417 : de:Глава 11
01:03:42.750 : de:Глава 12
01:08:02.833 : de:Глава 13
01:15:33.083 : de:Глава 14
01:23:25.250 : de:Глава 15
01:27:49.542 : de:Глава 16

piratbit.pw



Скачать Призраки войны через торрент https://i114.fastpic.ru/big/2020/1022/51/345c8a6a17aa17d6305c91b1aa374b51.jpg Скачать фильм Призраки войны через торрент бесплантно в хорошем качестве Описание: Последние месяцы Второй мировой войны. Французская провинция. Пятеро опытных американских солдат получают приказ охранять замок, ... 10 10 2
Торрент: Зарегистрирован [2020-10-22 09:07] · скачан: 42 раз
Статус: √ проверено
Размер: 2.69 GB
Как cкачать? Как скачать Призраки войны через торрент | qTorrent

% Раздел Тема Автор DL S | L
Фильмы 2019-2020 [DVDrip, WEB-DLRip, HDrip] (DUB, MVO) [ 1.46 GB ] Призраки войны / Ghosts of War [2020 военный BDRip] MVO [HDRezka Studio] Twi7ter Скачать
25 | 0
Фильмы (Blu-ray, BD-Remux, HDDVD) [ 25.33 GB ] Призраки войны / Ghosts of War [2020 военный BD Remux 1080p] +MVO [HDRezka Studio] bober100 Скачать
1 | 0
Фильмы 2019-2020 [DVDrip, WEB-DLRip, HDrip] (DUB, MVO) [ 1.46 GB ] Призраки войны / Ghosts of War [2020 военный BDRip] MVO [HDRezka Studio] bober100 Скачать
5 | 0
Фильмы 2019-2020 [DVDrip, WEB-DLRip, HDrip] (DUB, MVO) [ 1.46 GB ] Призраки войны / Ghosts of War [2020 военный BDRip] bober100 Скачать
3 | 0
Фильмы [HD 720p, 1080p] (Хороший звук DUB, MVO) [ 4.94 GB ] Призраки войны / Ghosts of War [2020 военный BDRip 720p] +MVO [HDRezka Studio] bober100 Скачать
5 | 0
Фильмы [HD 720p, 1080p] (Хороший звук DUB, MVO) [ 9.11 GB ] Призраки войны / Ghosts of War [2020 военный BDRip 1080p] +MVO [HDRezka Studio] bober100 Скачать
5 | 0
Фильмы 2019-2020 [DVDrip, WEB-DLRip, HDrip] (DUB, MVO) [ 1.41 GB ] Призраки войны / Ghosts of War [2020 военный BDRip-AVC] bober100 Скачать
1 | 0

28-11-2019 20:33  

Отключить всю рекламу на сайте

31-10-2020 19:33 Призраки войны Скачать торрент  

Нудный идиотизмpiratbit.pw



    Дорогой пользователь! Огромная просьба, поблагодарите релизера, оцените раздачу и оставьте свои комментарий, если Вы скачали Призраки войны через торрент бесплатно! Внесите свою лепту в развитие PiratBit!
    Комментировать посты могут только пользователи прошедшие не сложную регистрацию
    Показать сообщения:    

    Призраки войны через торрент
    Скачать бесплатно Призраки войны
    Призраки войны скачать торрент
    Призраки войны смотреть онлайн
    Cкачать фильм Призраки войны бесплатно
    Призраки войны скачать торрент в хорошем качестве
    Призраки войны смотреть онлайн бесплатно в хорошем качестве


    Вы не можете начинать темы
    Вы не можете отвечать на сообщения
    Вы не можете редактировать свои сообщения
    Вы не можете удалять свои сообщения
    Вы не можете голосовать в опросах
    Вы не можете прикреплять файлы к сообщениям
    Вы можете скачивать файлы