Ссылка на приватное зеркало нашего сайта всего за 1$. Внимание количество ограничено!!!

2 сезон

iTunes

1 сезон

1

2 сезон

2 сезон

iTunes

1 сезон

RePack

30

Ultimate

ВАЖНО

ИГРА 18+

pack

RePack

MK11
pack

Забери бонус

RePack

jed

!!Акция!!

Alien_Rage

RePack

fifa19

RePack

Assassins Creed: Odyssey

RePack

NEED FOR SPEED™ PAYBACK

4 сезон

9 сезон

Бесстыжие 9 сезон

Все сериалы

все сериалы на PB.wtf

RePack

FAR CRY 5
  

Любовь и монстры / Проблемы с монстром / Love and Monsters / Monster Problems (Майкл Мэтьюз) [2020, Комедия, фантастика, боевик, приключения, WEB-DLRip-AVC] [MVO] [HDRezka Studio] от MediaBit piratbit.pw

Любовь и монстры через торрент piratbit.pw

Раздают: 17 [ 0.9 KB/s ]
Размер: 1.51 GB | Добавлен: 1 мес. 11 д. назад | Торрент скачан:389 раз
Скачать  

21-10-2020 18:16 Любовь и монстры Скачать торрент  


Любовь и монстры / Love and Monsters
Информация о фильме:
Название: Любовь и монстры
Оригинальное название: Love and Monsters
Год выхода: 2020
Жанр: Комедия, фантастика, боевик, приключения
Режиссер: Майкл Мэтьюз
В ролях: Дилан О Брайен, Джессика Хенвик, Майкл Рукер, Эллен Холлман, Мелани Занетти, Ариана Гринблатт, Амали Голден, Тэнди Райт, Тэсним Рок, Ларри Седар

Описание: Спустя семь лет после нападения на человеческую расу ужасных монстров, Джоэль Доусон вместе с остальными выжившими прячется под землей от огромных существ, которые теперь чувствуют себя хозяевами на планете. Однажды парень ловит сигнал по радио и слышит голос девушки Эйми, в которую был влюблён ещё в старшей школе. Она укрылась в прибрежной колонии, расположенной в 80 милях от убежища Джоэля. Вопреки всякой логике, парень решает, что ему больше нечего делать под землей, и отправляется на поиски Эйми. На пути к заветной цели Джоэлю предстоит преодолеть множество опасностей и найти новых друзей, а также узнать много нового о чудовищах, захвативших планету...



Страна: Канада, США
Студия: 21 Laps Entertainment, Entertainment One, MTV Films
Продолжительность: 01:48:52
Перевод: Профессиональный (многоголосый, закадровый) - HDRezka Studio



Информация о файле:
Кодек: AVC
Формат: MKV
Качество: WEB-DLRip-AVC
Видео: MPEG-4 AVC, 1024x426 (2.40:1), 23.976 fps, 1536 kbps, 0.147
Аудио RU: AC3, 6 ch, 48 kHz, 448 kbps
Субтитры: Русские (форс.), английские
Навигация по главам: Нет

x264 info: frame I:1562 Avg QP:16.50 size: 59770
x264 info: frame P:41868 Avg QP:20.23 size: 15960
x264 info: frame B:113184 Avg QP:22.14 size: 4347
==================================
General
Unique ID : 55883384689615608685605689963735585566 (0x2A0ABF96EDD4BA3FCF35EE8FEE0E931E)
Complete name : D:\uTorrent\Рипы_от_wolf1245_MediaBit\Love and Monsters 2020 from wolf1245 & MediaBit.mkv
Format : Matroska
Format version : Version 4
File size : 1.51 GiB
Duration : 1 h 48 min
Overall bit rate : 1 985 kb/s
Movie name : Love and Monsters 2020 from wolf1245 & MediaBit
Encoded date : UTC 2020-10-21 18:09:56
Writing application : mkvmerge v51.0.0 ('I Wish') 64-bit
Writing library : libebml v1.4.0 + libmatroska v1.6.2

Video
ID : 1
Format : AVC
Format/Info : Advanced Video Codec
Format profile : High@L4.1
Format settings : CABAC / 11 Ref Frames
Format settings, CABAC : Yes
Format settings, Reference frames : 11 frames
Codec ID : V_MPEG4/ISO/AVC
Duration : 1 h 48 min
Bit rate : 1 536 kb/s
Width : 1 024 pixels
Height : 426 pixels
Display aspect ratio : 2.40:1
Frame rate mode : Constant
Frame rate : 23.976 (24000/1001) FPS
Color space : YUV
Chroma subsampling : 4:2:0
Bit depth : 8 bits
Scan type : Progressive
Bits/(Pixel*Frame) : 0.147
Stream size : 1.17 GiB (77%)
Title : wolf1245 & MediaBit
Writing library : x264 core 157 r2958 57baac4
Encoding settings : cabac=1 / ref=11 / deblock=1:-3:-3 / analyse=0x3:0x133 / me=umh / subme=11 / psy=1 / psy_rd=1.02:0.06 / mixed_ref=1 / me_range=48 / chroma_me=1 / trellis=2 / 8x8dct=1 / cqm=0 / deadzone=21,11 / fast_pskip=0 / chroma_qp_offset=-3 / threads=10 / lookahead_threads=2 / sliced_threads=0 / nr=0 / decimate=0 / interlaced=0 / bluray_compat=0 / constrained_intra=0 / bframes=11 / b_pyramid=2 / b_adapt=2 / b_bias=0 / direct=3 / weightb=1 / open_gop=0 / weightp=2 / keyint=240 / keyint_min=24 / scenecut=40 / intra_refresh=0 / rc_lookahead=60 / rc=2pass / mbtree=0 / bitrate=1536 / ratetol=1.0 / qcomp=0.60 / qpmin=0 / qpmax=69 / qpstep=4 / cplxblur=20.0 / qblur=0.5 / vbv_maxrate=50000 / vbv_bufsize=62500 / nal_hrd=none / filler=0 / ip_ratio=1.40 / pb_ratio=1.30 / aq=2:0.80
Language : English
Default : Yes
Forced : No
Color range : Limited
Color primaries : BT.709
Transfer characteristics : BT.709
Matrix coefficients : BT.709

Audio
ID : 2
Format : AC-3
Format/Info : Audio Coding 3
Commercial name : Dolby Digital
Codec ID : A_AC3
Duration : 1 h 48 min
Bit rate mode : Constant
Bit rate : 448 kb/s
Channel(s) : 6 channels
Channel layout : L R C LFE Ls Rs
Sampling rate : 48.0 kHz
Frame rate : 31.250 FPS (1536 SPF)
Compression mode : Lossy
Stream size : 349 MiB (23%)
Title : MVO (HDrezka Studio)
Language : Russian
Service kind : Complete Main
Default : Yes
Forced : No

Text #1
ID : 3
Format : UTF-8
Codec ID : S_TEXT/UTF8
Codec ID/Info : UTF-8 Plain Text
Duration : 1 h 40 min
Bit rate : 3 b/s
Count of elements : 51
Stream size : 2.88 KiB (0%)
Title : Forced
Language : Russian
Default : No
Forced : No

Text #2
ID : 4
Format : UTF-8
Codec ID : S_TEXT/UTF8
Codec ID/Info : UTF-8 Plain Text
Duration : 1 h 42 min
Bit rate : 73 b/s
Count of elements : 1711
Stream size : 55.3 KiB (0%)
Language : English
Default : No
Forced : No
Релиз от: & &
piratbit.pw



Скачать Любовь и монстры через торрент https://b.radikal.ru/b40/2010/54/00f726706c5b.jpg Скачать фильм Любовь и монстры через торрент бесплантно в хорошем качестве Описание: Спустя семь лет после нападения на человеческую расу ужасных монстров, Джоэль Доусон вместе с остальными выжившими прячется под ... 9 10 21
Info! Золотая раздача, скачанное не засчитывается.
Торрент: Зарегистрирован [2020-10-21 18:16] · скачан: 389 раз
Статус: √ проверено
Размер: 1.51 GB
Как cкачать? Как скачать Любовь и монстры через торрент | qTorrent

28-11-2019 20:33  

Отключить всю рекламу на сайте

21-10-2020 21:05 Любовь и монстры Скачать торрент  

очередное кафно.еле досмотрел. piratbit.pw



22-10-2020 15:41 Любовь и монстры Скачать торрент  

Фильм супер!!! Мне понравился. Смотрится очень легко и на одном дыхании. Сюжет не заезжен, и от этого очень интересно. Озвучка главного актера понравилась. На высоте.piratbit.pw



23-10-2020 06:49 Любовь и монстры Скачать торрент  

бредpiratbit.pw



26-10-2020 12:09 Любовь и монстры Скачать торрент  

Отличный фильм. С удовольствием посмотрел бы сериал на его основе или поиграл в игру. Казалось бы ничего особенного не придумали, но все сделано отлично. Надеюсь будет продолжение. Однозначно смотреть, как минимум не пожалеете.piratbit.pw



26-10-2020 18:04 Любовь и монстры Скачать торрент  

Мгла - лайт версия. Довольно таки красивый фильм получился. Хотелось больше разнообразия фауны увидеть. И тоже надеюсь будет продолжение.piratbit.pw



    Дорогой пользователь! Огромная просьба, поблагодарите релизера, оцените раздачу и оставьте свои комментарий, если Вы скачали Любовь и монстры через торрент бесплатно! Внесите свою лепту в развитие PiratBit!
    Комментировать посты могут только пользователи прошедшие не сложную регистрацию
    Показать сообщения:    

    Любовь и монстры через торрент
    Скачать бесплатно Любовь и монстры
    Любовь и монстры скачать торрент
    Любовь и монстры смотреть онлайн
    Cкачать фильм Любовь и монстры бесплатно
    Любовь и монстры скачать торрент в хорошем качестве
    Любовь и монстры смотреть онлайн бесплатно в хорошем качестве


    Вы не можете начинать темы
    Вы не можете отвечать на сообщения
    Вы не можете редактировать свои сообщения
    Вы не можете удалять свои сообщения
    Вы не можете голосовать в опросах
    Вы не можете прикреплять файлы к сообщениям
    Вы можете скачивать файлы