Ссылка на приватное зеркало нашего сайта всего за 1$. Внимание количество ограничено!!!

2 сезон

iTunes

1 сезон

1

2 сезон

2 сезон

iTunes

1 сезон

RePack

30

Новинка

ВАЖНО

ИГРА 18+

pack

RePack

MK11
pack

Забери бонус

RePack

jed

!!Акция!!

Alien_Rage

RePack

fifa19

RePack

Assassins Creed: Odyssey

RePack

NEED FOR SPEED™ PAYBACK

4 сезон

9 сезон

Бесстыжие 9 сезон

Все сериалы

все сериалы на PB.wtf

RePack

FAR CRY 5
  

Жуткая невеста / Scary Bride (Данил Гринькин) [2020, Ужасы, комедия, WEB-DLRip-AVC] [MVO] [@MUZOBOZ@] от MediaBit piratbit.pw

Жуткая невеста через торрент piratbit.pw

Раздают: 1 [ 0 KB/s ]
Размер: 1.46 GB | Добавлен: 1 мес. 3 д. назад | Торрент скачан:112 раз
Скачать  

20-10-2020 18:03 Жуткая невеста Скачать торрент  


Жуткая невеста / Scary Bride
Информация о фильме:
Название: Жуткая невеста
Оригинальное название: Scary Bride
Год выхода: 2020
Жанр: Ужасы, комедия
Режиссер: Данил Гринькин
В ролях: Эндрю Крейг, Роман Данилычев, Светлана Егорова, Флуора Исхакова, Виталий Рябов, Арнелла Зубкова

Описание: Энтони, молодой американский клерк, по совету своего друга отправляется в Россию на поиски невесты. Однажды вечером он пошёл в бар, где встретил одинокую красивую блондинку - девушку своей мечты. Энтони решил не упускать свой шанс и познакомиться с красавицей. Один из посетителей бара предупредил его, что девушка - настоящая ведьма. Но Энтони не воспринял предупреждение всерьез...



Страна: США
Студия: Region M
Продолжительность: 01:11:44
Перевод: Любительский (многоголосый, закадровый) - @MUZOBOZ@



Информация о файле:
Кодек: AVC
Формат: MKV
Качество: WEB-DLRip-AVC
Видео: MPEG-4 AVC, 1024x422 (2.40:1), 25.000 fps, 2338 kbps, 0.216
Аудио RU: AC3, 2 ch, 48 kHz, 192 kbps
Аудио EN: AC3, 6 ch, 48 kHz, 384 kbps
Субтитры: Английские
Навигация по главам: Нет

General
Unique ID : 316988914074283098026829395930336592454 (0xEE79D81B3A048C70E4786C2F12460246)
Complete name : D:uTorrentРипы_от_wolf1245_MediaBitScary Bride (2020) WEB-DLRip-AVC from wolf1245 & MediaBit.mkv
Format : Matroska
Format version : Version 4
File size : 1.46 GiB
Duration : 1 h 11 min
Overall bit rate : 2 915 kb/s
Movie name : Scary Bride (2020) WEB-DLRip-AVC from wolf1245 & MediaBit
Encoded date : UTC 2020-10-20 17:49:20
Writing application : mkvmerge v51.0.0 ('I Wish') 64-bit
Writing library : libebml v1.4.0 + libmatroska v1.6.2

Video
ID : 1
Format : AVC
Format/Info : Advanced Video Codec
Format profile : High@L4.1
Format settings : CABAC / 12 Ref Frames
Format settings, CABAC : Yes
Format settings, Reference frames : 12 frames
Codec ID : V_MPEG4/ISO/AVC
Duration : 1 h 11 min
Bit rate : 2 338 kb/s
Width : 1 024 pixels
Height : 422 pixels
Display aspect ratio : 2.40:1
Frame rate mode : Constant
Frame rate : 25.000 FPS
Color space : YUV
Chroma subsampling : 4:2:0
Bit depth : 8 bits
Scan type : Progressive
Bits/(Pixel*Frame) : 0.216
Stream size : 1.17 GiB (80%)
Title : wolf1245 & MediaBit
Writing library : x264 core 157 r2958 57baac4
Encoding settings : cabac=1 / ref=12 / deblock=1:-3:-3 / analyse=0x3:0x133 / me=umh / subme=11 / psy=1 / psy_rd=1.02:0.06 / mixed_ref=1 / me_range=48 / chroma_me=1 / trellis=2 / 8x8dct=1 / cqm=0 / deadzone=21,11 / fast_pskip=0 / chroma_qp_offset=-3 / threads=10 / lookahead_threads=2 / sliced_threads=0 / nr=0 / decimate=0 / interlaced=0 / bluray_compat=0 / constrained_intra=0 / bframes=12 / b_pyramid=2 / b_adapt=2 / b_bias=0 / direct=3 / weightb=1 / open_gop=0 / weightp=2 / keyint=250 / keyint_min=25 / scenecut=40 / intra_refresh=0 / rc_lookahead=60 / rc=2pass / mbtree=0 / bitrate=2338 / ratetol=1.0 / qcomp=0.60 / qpmin=0 / qpmax=69 / qpstep=4 / cplxblur=20.0 / qblur=0.5 / vbv_maxrate=50000 / vbv_bufsize=62500 / nal_hrd=none / filler=0 / ip_ratio=1.40 / pb_ratio=1.30 / aq=2:0.80
Language : English
Default : Yes
Forced : No
Color range : Limited
Color primaries : BT.709
Transfer characteristics : BT.709
Matrix coefficients : BT.709

Audio #1
ID : 2
Format : AC-3
Format/Info : Audio Coding 3
Commercial name : Dolby Digital
Codec ID : A_AC3
Duration : 1 h 11 min
Bit rate mode : Constant
Bit rate : 192 kb/s
Channel(s) : 2 channels
Channel layout : L R
Sampling rate : 48.0 kHz
Frame rate : 31.250 FPS (1536 SPF)
Compression mode : Lossy
Stream size : 98.5 MiB (7%)
Title : MVO [@MUZOBOZ@] MediaBit
Language : Russian
Service kind : Complete Main
Default : Yes
Forced : No

Audio #2
ID : 3
Format : AC-3
Format/Info : Audio Coding 3
Commercial name : Dolby Digital
Codec ID : A_AC3
Duration : 1 h 11 min
Bit rate mode : Constant
Bit rate : 384 kb/s
Channel(s) : 6 channels
Channel layout : L R C LFE Ls Rs
Sampling rate : 48.0 kHz
Frame rate : 31.250 FPS (1536 SPF)
Compression mode : Lossy
Stream size : 197 MiB (13%)
Title : ORIGINAL
Language : English
Service kind : Complete Main
Default : No
Forced : No

Text
ID : 4
Format : UTF-8
Codec ID : S_TEXT/UTF8
Codec ID/Info : UTF-8 Plain Text
Duration : 1 h 8 min
Bit rate : 33 b/s
Count of elements : 611
Stream size : 16.5 KiB (0%)
Language : English
Default : No
Forced : No
& &
piratbit.pw



Скачать Жуткая невеста через торрент https://d.radikal.ru/d28/2010/e7/9938c5d61be7.jpg Скачать фильм Жуткая невеста через торрент бесплантно в хорошем качестве Описание: Энтони, молодой американский клерк, по совету своего друга отправляется в Россию на поиски невесты. Однажды вечером он пошёл в ... 10 10 4
Торрент: Зарегистрирован [2020-10-20 18:03] · скачан: 112 раз
Статус: T временная
Размер: 1.46 GB
Как cкачать? Как скачать Жуткая невеста через торрент | qTorrent

28-11-2019 20:33  

Отключить всю рекламу на сайте

    Дорогой пользователь! Огромная просьба, поблагодарите релизера, оцените раздачу и оставьте свои комментарий, если Вы скачали Жуткая невеста через торрент бесплатно! Внесите свою лепту в развитие PiratBit!
    Комментировать посты могут только пользователи прошедшие не сложную регистрацию
    Показать сообщения:    

    Жуткая невеста через торрент
    Скачать бесплатно Жуткая невеста
    Жуткая невеста скачать торрент
    Жуткая невеста смотреть онлайн
    Cкачать фильм Жуткая невеста бесплатно
    Жуткая невеста скачать торрент в хорошем качестве
    Жуткая невеста смотреть онлайн бесплатно в хорошем качестве


    Вы не можете начинать темы
    Вы не можете отвечать на сообщения
    Вы не можете редактировать свои сообщения
    Вы не можете удалять свои сообщения
    Вы не можете голосовать в опросах
    Вы не можете прикреплять файлы к сообщениям
    Вы можете скачивать файлы