Ссылка на приватное зеркало нашего сайта всего за 1$. Внимание количество ограничено!!!

2 сезон

iTunes

1 сезон

1

2 сезон

2 сезон

iTunes

1 сезон

RePack

30

Ultimate

ВАЖНО

ИГРА 18+

pack

RePack

MK11
pack

Забери бонус

RePack

jed

!!Акция!!

Alien_Rage

RePack

fifa19

RePack

Assassins Creed: Odyssey

RePack

NEED FOR SPEED™ PAYBACK

4 сезон

9 сезон

Бесстыжие 9 сезон

Все сериалы

все сериалы на PB.wtf

RePack

FAR CRY 5
  

У дьявола есть имя / The Devil Has a Name (Эдвард Джеймс Олмос) [2019 г., Триллер, драма, WEB-DLRip-AVC] [MVO] [@MUZOBOZ@] от MediaBit piratbit.pw

У дьявола есть имя через торрент piratbit.pw

Размер: 1.46 GB | Добавлен: 1 мес. 8 д. назад | Торрент скачан:32 раза
Скачать  

19-10-2020 17:34 У дьявола есть имя Скачать торрент  


У дьявола есть имя / The Devil Has a Name
Информация о фильме:
Название: У дьявола есть имя
Оригинальное название: The Devil Has a Name
Год выхода: 2019
Жанр: Триллер, драма
Режиссер: Эдвард Джеймс Олмос
В ролях: Хейли Джоэл Осмент, Пабло Шрайбер, Кейт Босворт, Мартин Шин, Дэвид Стрэтэйрн, Альфред Молина, Эдвард Джеймс Олмос, Кэтрин Аселтон, Тамо Пеникетт, Майкл Хоган

Описание: Пожилой американский фермер Фред Стерн объявляет войну нефтяной империи, отравивший воду на его участке. Упрямому Стерну противостоит властная и высокомерная бизнес-леди Гиги Катлер, которая является региональным директором, но метит на место главы корпорации. Тем временем действующий «Большой Босс» тоже пытается низвергнуть опасную соперницу.

rating

Страна: США
Студия: StoryBoard Media, True Navigator Media
Продолжительность: 01:37:18
Перевод: Любительский (многоголосый, закадровый) - @MUZOBOZ@



Информация о файле:
Кодек: AVC
Формат: MKV
Качество: WEB-DLRip-AVC
Видео: MPEG-4 AVC, 1024x430 (2.40:1), 23.976 fps, 1956 kbps, 0.185
Аудио RU: AC3, 2 ch, 48 kHz, 192 kbps
Субтитры: Английские
Навигация по главам: Нет

x264 info: frame I:1228 Avg QP:13.51 size: 72604
x264 info: frame P:29087 Avg QP:16.40 size: 23107
x264 info: frame B:109667 Avg QP:18.11 size: 6063
=============================================
General
Unique ID : 312767755025685368612770835187371270915 (0xEB4CE0E5A7F5B927E7DB468C39B2E303)
Complete name : D:uTorrentРипы_от_wolf1245_MediaBitThe Devil Has a Name (2019) WEB-DLRip-AVC from wolf1245 & MediaBit.mkv
Format : Matroska
Format version : Version 4
File size : 1.46 GiB
Duration : 1 h 37 min
Overall bit rate : 2 148 kb/s
Movie name : The Devil Has a Name (2019) WEB-DLRip-AVC from wolf1245 & MediaBit
Encoded date : UTC 2020-10-19 16:55:20
Writing application : mkvmerge v51.0.0 ('I Wish') 64-bit
Writing library : libebml v1.4.0 + libmatroska v1.6.2

Video
ID : 1
Format : AVC
Format/Info : Advanced Video Codec
Format profile : High@L4.1
Format settings : CABAC / 12 Ref Frames
Format settings, CABAC : Yes
Format settings, Reference frames : 12 frames
Codec ID : V_MPEG4/ISO/AVC
Duration : 1 h 37 min
Bit rate : 1 956 kb/s
Width : 1 024 pixels
Height : 430 pixels
Display aspect ratio : 2.40:1
Frame rate mode : Constant
Frame rate : 23.976 (24000/1001) FPS
Color space : YUV
Chroma subsampling : 4:2:0
Bit depth : 8 bits
Scan type : Progressive
Bits/(Pixel*Frame) : 0.185
Stream size : 1.33 GiB (91%)
Title : wolf1245 & MediaBit
Writing library : x264 core 157 r2958 57baac4
Encoding settings : cabac=1 / ref=12 / deblock=1:-3:-3 / analyse=0x3:0x133 / me=umh / subme=11 / psy=1 / psy_rd=1.02:0.06 / mixed_ref=1 / me_range=48 / chroma_me=1 / trellis=2 / 8x8dct=1 / cqm=0 / deadzone=21,11 / fast_pskip=0 / chroma_qp_offset=-3 / threads=10 / lookahead_threads=2 / sliced_threads=0 / nr=0 / decimate=0 / interlaced=0 / bluray_compat=0 / constrained_intra=0 / bframes=12 / b_pyramid=2 / b_adapt=2 / b_bias=0 / direct=3 / weightb=1 / open_gop=0 / weightp=2 / keyint=240 / keyint_min=24 / scenecut=40 / intra_refresh=0 / rc_lookahead=60 / rc=2pass / mbtree=0 / bitrate=1956 / ratetol=1.0 / qcomp=0.60 / qpmin=0 / qpmax=69 / qpstep=4 / cplxblur=20.0 / qblur=0.5 / vbv_maxrate=50000 / vbv_bufsize=62500 / nal_hrd=none / filler=0 / ip_ratio=1.40 / pb_ratio=1.30 / aq=2:0.80
Language : English
Default : Yes
Forced : No
Color range : Limited
Color primaries : BT.709
Transfer characteristics : BT.709
Matrix coefficients : BT.709

Audio
ID : 2
Format : AC-3
Format/Info : Audio Coding 3
Commercial name : Dolby Digital
Codec ID : A_AC3
Duration : 1 h 37 min
Bit rate mode : Constant
Bit rate : 192 kb/s
Channel(s) : 2 channels
Channel layout : L R
Sampling rate : 48.0 kHz
Frame rate : 31.250 FPS (1536 SPF)
Compression mode : Lossy
Stream size : 134 MiB (9%)
Title : MVO [@MUZOBOZ@] MediaBit
Language : Russian
Service kind : Complete Main
Default : Yes
Forced : No

Text
ID : 3
Format : UTF-8
Codec ID : S_TEXT/UTF8
Codec ID/Info : UTF-8 Plain Text
Duration : 1 h 36 min
Bit rate : 59 b/s
Count of elements : 1590
Stream size : 42.4 KiB (0%)
Language : English
Default : No
Forced : No
& &
piratbit.pw



Скачать У дьявола есть имя через торрент https://d.radikal.ru/d14/2010/45/639cba09787b.png Скачать фильм У дьявола есть имя через торрент бесплантно в хорошем качестве Описание: Пожилой американский фермер Фред Стерн объявляет войну нефтяной империи, отравивший воду на его участке. Упрямому Стерну ... 10 10 3
Торрент: Зарегистрирован [2020-10-19 17:34] · скачан: 32 раз
Статус: T временная
Размер: 1.46 GB
Как cкачать? Как скачать У дьявола есть имя через торрент | qTorrent

28-11-2019 20:33  

Отключить всю рекламу на сайте

    Дорогой пользователь! Огромная просьба, поблагодарите релизера, оцените раздачу и оставьте свои комментарий, если Вы скачали У дьявола есть имя через торрент бесплатно! Внесите свою лепту в развитие PiratBit!
    Комментировать посты могут только пользователи прошедшие не сложную регистрацию
    Показать сообщения:    

    У дьявола есть имя через торрент
    Скачать бесплатно У дьявола есть имя
    У дьявола есть имя скачать торрент
    У дьявола есть имя смотреть онлайн
    Cкачать фильм У дьявола есть имя бесплатно
    У дьявола есть имя скачать торрент в хорошем качестве
    У дьявола есть имя смотреть онлайн бесплатно в хорошем качестве


    Вы не можете начинать темы
    Вы не можете отвечать на сообщения
    Вы не можете редактировать свои сообщения
    Вы не можете удалять свои сообщения
    Вы не можете голосовать в опросах
    Вы не можете прикреплять файлы к сообщениям
    Вы можете скачивать файлы