Ссылка на приватное зеркало нашего сайта всего за 1$. Внимание количество ограничено!!!

2 сезон

iTunes

1 сезон

1

2 сезон

2 сезон

iTunes

1 сезон

RePack

30

Ultimate

ВАЖНО

ИГРА 18+

pack

RePack

MK11
pack

Забери бонус

RePack

jed

!!Акция!!

Alien_Rage

RePack

fifa19

RePack

Assassins Creed: Odyssey

RePack

NEED FOR SPEED™ PAYBACK

4 сезон

9 сезон

Бесстыжие 9 сезон

Все сериалы

все сериалы на PB.wtf

RePack

FAR CRY 5
  

За призрачной дверью / The Pale Door (А.Б. Кунц) [2020, Ужасы, вестерн, драма, BDRip-AVC] DUB [iTunes] piratbit.pw

За призрачной дверью через торрент piratbit.pw

Размер: 2.14 GB | Добавлен: 1 мес. 5 д. назад | Торрент скачан:68 раз
Скачать  

19-10-2020 15:45 За призрачной дверью Скачать торрент  

За призрачной дверью | The Pale Door
Год выпуска: 2020
Страна: США
Студия: Paper Street Pictures, Storyteller Media, BondIt Media Capital
Жанр: Ужасы, вестерн, драма
Продолжительность: 01:36:23
Перевод: Дублированный | iTunes
Субтитры: Английские (Full, SDH)

Режиссер: А.Б. Кунц

rating

В ролях: Мелора Уолтерс, Захари Найтон, Ноа Сеган, Наташа Бассетт, Стэн Шоу, Девин Друид, Билл Сейдж, Пэт Хили, Джеймс Хеберт, Тина Паркер

Описание: Ограбив поезд, банда лихих ковбоев находит в нём окованный цепями сундук, но вместо несметных сокровищ там оказывается связанная девушка. Она уговаривает своих внезапных спасителей отвезти её в родной городок Потёмкин и даже сулит награду. Не долго думая, банда соглашается. Они привозят девушку домой, и их радушно встречает хозяйка борделя, но вскоре окажется, что это странное место таит в себе жуткую тайну.

Качество: BDRip-AVC
Формат: MKV

Видео: 1024x546 (1.85:1), 23.976 fps, MPEG-4 AVC ~ 2338 Kbps avg, 0.174 bit/pixel
Аудио#1: AC3, 48 kHz, 6 ch, ~384.00 kbps avg | русский | iTunes
Аудио#2: AC3, 48 kHz, 6 ch, ~448.00 kbps avg | английский | Оригинал
скриншот  скриншот  скриншот  скриншот  скриншот  

Общее
Уникальный идентификатор : 338936528841354880486594636344502404883 (0xFEFCCD0F44A4DC864C04FF5AAC724713)
Полное имя : The.Pale.Door.2020.BDRip.2.14Gb.x264.mkv
Формат : Matroska
Версия формата : Version 4
Размер файла : 2,14 Гбайт
Продолжительность : 1 ч. 36 м.
Общий поток : 3 172 Кбит/сек
Название фильма : За призрачной дверью / The Pale Door (2020)
Дата кодирования : UTC 2020-10-19 15:25:27
Программа кодирования : mkvmerge v47.0.0 ('Black Flag') 64-bit
Библиотека кодирования : libebml v1.3.10 + libmatroska v1.5.2
Обложка : Yes
Attachments : cover.jpg

Видео
Идентификатор : 1
Формат : AVC
Формат/Информация : Advanced Video Codec
Профиль формата : High@L4.1
Настройки формата : CABAC / 11 Ref Frames
Параметр CABAC формата : Да
Параметр RefFrames формата : 11 кадров
Идентификатор кодека : V_MPEG4/ISO/AVC
Продолжительность : 1 ч. 36 м.
Битрейт : 2 338 Кбит/сек
Ширина : 1 024 пикселя
Высота : 546 пикселей
Соотношение сторон : 1,85:1
Режим частоты кадров : Постоянный
Частота кадров : 23,976 кадра/сек
Цветовое пространство : YUV
Субдискретизация насыщенности : 4:2:0
Битовая глубина : 8 бит
Тип развёртки : Прогрессивная
Бит/(Пиксели*Кадры) : 0.174
Размер потока : 1,57 Гбайт (74%)
Заголовок : #stillet
Библиотека кодирования : x264 core 152 r2851bm ba24899
Настройки программы : cabac=1 / ref=11 / deblock=1:-2:-2 / analyse=0x3:0x113 / me=umh / subme=10 / psy=1 / psy_rd=1.00:0.15 / mixed_ref=1 / me_range=32 / chroma_me=1 / trellis=2 / 8x8dct=1 / cqm=0 / deadzone=21,11 / fast_pskip=0 / chroma_qp_offset=-3 / threads=8 / lookahead_threads=3 / sliced_threads=0 / nr=0 / decimate=0 / interlaced=0 / bluray_compat=0 / constrained_intra=0 / bframes=10 / b_pyramid=2 / b_adapt=2 / b_bias=0 / direct=3 / weightb=1 / open_gop=0 / weightp=2 / keyint=240 / keyint_min=23 / scenecut=40 / intra_refresh=0 / rc=2pass / mbtree=0 / bitrate=2338 / ratetol=1.0 / qcomp=0.60 / qpmin=0 / qpmax=69 / qpstep=4 / cplxblur=20.0 / qblur=0.5 / ip_ratio=1.40 / pb_ratio=1.30 / aq=1:1.00
Язык : English
Default : Да
Forced : Нет

Аудио #1
Идентификатор : 2
Формат : AC-3
Формат/Информация : Audio Coding 3
Коммерческое название : Dolby Digital
Идентификатор кодека : A_AC3
Продолжительность : 1 ч. 36 м.
Вид битрейта : Постоянный
Битрейт : 384 Кбит/сек
Каналы : 6 каналов
Channel layout : L R C LFE Ls Rs
Частота : 48,0 КГц
Частота кадров : 31,250 кадров/сек (1536 SPF)
Метод сжатия : С потерями
Размер потока : 265 Мбайт (12%)
Заголовок : iTunes
Язык : Russian
Service kind : Complete Main
Default : Да
Forced : Да

Аудио #2
Идентификатор : 3
Формат : AC-3
Формат/Информация : Audio Coding 3
Коммерческое название : Dolby Digital
Идентификатор кодека : A_AC3
Продолжительность : 1 ч. 36 м.
Вид битрейта : Постоянный
Битрейт : 448 Кбит/сек
Каналы : 6 каналов
Channel layout : L R C LFE Ls Rs
Частота : 48,0 КГц
Частота кадров : 31,250 кадров/сек (1536 SPF)
Метод сжатия : С потерями
Размер потока : 309 Мбайт (14%)
Язык : English
Service kind : Complete Main
Default : Нет
Forced : Нет

Текст #1
Идентификатор : 4
Формат : UTF-8
Идентификатор кодека : S_TEXT/UTF8
Идентификатор кодека/Информация : UTF-8 Plain Text
Продолжительность : 1 ч. 27 м.
Битрейт : 39 бит/сек
Count of elements : 995
Размер потока : 25,3 Кбайт (0%)
Заголовок : Full
Язык : English
Default : Нет
Forced : Нет

Текст #2
Идентификатор : 5
Формат : UTF-8
Идентификатор кодека : S_TEXT/UTF8
Идентификатор кодека/Информация : UTF-8 Plain Text
Продолжительность : 1 ч. 35 м.
Битрейт : 42 бит/сек
Count of elements : 1213
Размер потока : 29,6 Кбайт (0%)
Заголовок : SDH
Язык : English
Default : Нет
Forced : Нет

Меню
00:00:00.000 : en:They're Here
00:09:03.918 : en:The Daltons
00:19:00.014 : en:Train Robbery
00:24:23.796 : en:Pearl
00:29:44.741 : en:Hell Of A Situation
00:37:32.750 : en:Make Yourselves At Home
00:46:36.711 : en:Witchcraft
00:54:09.163 : en:Bring The Boy To Me
01:05:45.150 : en:House Of God
01:14:52.905 : en:The Sun Ain't Coming Up
01:24:17.052 : en:Done Running
01:30:43.063 : en:Coda

piratbit.pw



Скачать За призрачной дверью через торрент https://a.radikal.ru/a24/2009/16/f2fd583bf65e.png Скачать фильм За призрачной дверью через торрент бесплантно в хорошем качестве Описание: Ограбив поезд, банда лихих ковбоев находит в нём окованный цепями сундук, но вместо несметных сокровищ там оказывается связанная ... 10 10 5
Торрент: Зарегистрирован [2020-10-19 15:45] · скачан: 68 раз
Статус: √ проверено
Размер: 2.14 GB
Как cкачать? Как скачать За призрачной дверью через торрент | qTorrent

% Раздел Тема Автор DL S | L
Фильмы 2019-2020 [DVDrip, WEB-DLRip, HDrip] (DUB, MVO) [ 1.42 GB ] За призрачной дверью / The Pale Door [2020 BDRip] - Twi7ter Скачать
7 | 0
Фильмы [HD 720p, 1080p] (Хороший звук DUB, MVO) [ 7.1 GB ] За призрачной дверью / The Pale Door [2020 BDRip 720p] bober100 Скачать
4 | 0
Фильмы (Blu-ray, BD-Remux, HDDVD) [ 26.6 GB ] За призрачной дверью / The Pale Door [2020 BD Remux 1080p] bober100 Скачать
1 | 0
Фильмы [HD 720p, 1080p] (Хороший звук DUB, MVO) [ 15.48 GB ] За призрачной дверью / The Pale Door [2020 BDRip 1080p] bober100 Скачать
2 | 0
Фильмы 2019-2020 [DVDrip, WEB-DLRip, HDrip] (DUB, MVO) [ 1.46 GB ] За призрачной дверью / The Pale Door [2020 BDRip] bober100 Скачать
2 | 0

28-11-2019 20:33  

Отключить всю рекламу на сайте

    Дорогой пользователь! Огромная просьба, поблагодарите релизера, оцените раздачу и оставьте свои комментарий, если Вы скачали За призрачной дверью через торрент бесплатно! Внесите свою лепту в развитие PiratBit!
    Комментировать посты могут только пользователи прошедшие не сложную регистрацию
    Показать сообщения:    

    За призрачной дверью через торрент
    Скачать бесплатно За призрачной дверью
    За призрачной дверью скачать торрент
    За призрачной дверью смотреть онлайн
    Cкачать фильм За призрачной дверью бесплатно
    За призрачной дверью скачать торрент в хорошем качестве
    За призрачной дверью смотреть онлайн бесплатно в хорошем качестве


    Вы не можете начинать темы
    Вы не можете отвечать на сообщения
    Вы не можете редактировать свои сообщения
    Вы не можете удалять свои сообщения
    Вы не можете голосовать в опросах
    Вы не можете прикреплять файлы к сообщениям
    Вы можете скачивать файлы