Ссылка на приватное зеркало нашего сайта всего за 1$. Внимание количество ограничено!!!

2 сезон

iTunes

1 сезон

1

2 сезон

2 сезон

iTunes

1 сезон

RePack

30

Новинка

ВАЖНО

ИГРА 18+

pack

RePack

MK11
pack

Забери бонус

RePack

jed

!!Акция!!

Alien_Rage

RePack

fifa19

RePack

Assassins Creed: Odyssey

RePack

NEED FOR SPEED™ PAYBACK

4 сезон

9 сезон

Бесстыжие 9 сезон

Все сериалы

все сериалы на PB.wtf

RePack

FAR CRY 5
  

Девушка-невидимка / Возвышаясь над тенью / Above the Shadows (Клаудия Майерс) [2019, Фэнтези, BDRip-AVC] DUB [iTunes] piratbit.pw

Девушка-невидимка через торрент piratbit.pw

Раздают: 4 [ 0 KB/s ]
Размер: 2.13 GB | Добавлен: 1 мес. 8 д. назад | Торрент скачан:268 раз
Скачать  

19-10-2020 04:54 Девушка-невидимка Скачать торрент  

Девушка-невидимка | Возвышаясь над тенью | Above the Shadows
Год выпуска: 2019
Страна: США
Студия: HIPZEE, BondIt Media Capital, Boundary Stone Films
Жанр: Фэнтези
Продолжительность: 01:50:57
Перевод: Дублированный | iTunes
Субтитры: Английские (Full, SDH)

Режиссер: Клаудия Майерс

rating

В ролях: Меган Фокс, Оливия Тирлби, Алан Ричсон, Джастин Котсонас, Джим Гэффиган, Мария Диззия, Дэвид Джохансен, Павел Жайда, Оуэн Кэмпбелл, Тито Ортис

Описание: В юности Холли обнаружила, что стала невидимой для окружающих. Поначалу она не понимала, почему её никто не замечает, полагая, что все вокруг просто притворяются, но в конце концов девушка смирилась со своей вынужденной ролью невидимки и стала жить по новым правилам. Несколько лет Холли подглядывала за чужими жизнями, зарабатывая на этом неплохие деньги. Ей открылись многие тайны, которые ранее тщательно скрывались. Но однажды Холли выпадает шанс поставить всё на прежние места и вернуться в мир людей при помощи единственного мужчины, который может её видеть.

Качество: BDRip-AVC
Формат: MKV

Видео: 1024x428 (2.40:1), 23,976 fps, MPEG-4 AVC ~ 2361 Kbps avg, 0.225 bit/pixel
Аудио: AC3, 48 kHz, 6 ch, ~384.00 kbps avg | русский | iTunes
скриншот  скриншот  скриншот  скриншот  скриншот  

Общее
Уникальный идентификатор : 43021413839380849005567447179515131278 (0x205D9F77718C5A542A9D53B0355FF58E)
Полное имя : Above.the.Shadows.2019.BDRip.2.13Gb.x264.mkv
Формат : Matroska
Версия формата : Version 4
Размер файла : 2,13 Гбайт
Продолжительность : 1 ч. 50 м.
Общий поток : 2 741 Кбит/сек
Название фильма : Девушка-невидимка / Возвышаясь над тенью / Above the Shadows (2019)
Дата кодирования : UTC 2020-10-18 23:30:02
Программа кодирования : mkvmerge v47.0.0 ('Black Flag') 64-bit
Библиотека кодирования : libebml v1.3.10 + libmatroska v1.5.2
Обложка : Yes
Attachments : cover.jpg

Видео
Идентификатор : 1
Формат : AVC
Формат/Информация : Advanced Video Codec
Профиль формата : High@L4.1
Настройки формата : CABAC / 10 Ref Frames
Параметр CABAC формата : Да
Параметр RefFrames формата : 10 кадров
Идентификатор кодека : V_MPEG4/ISO/AVC
Продолжительность : 1 ч. 50 м.
Битрейт : 2 361 Кбит/сек
Ширина : 1 024 пикселя
Высота : 428 пикселей
Соотношение сторон : 2,40:1
Режим частоты кадров : Постоянный
Частота кадров : 23,976 (24000/1001) кадра/сек
Цветовое пространство : YUV
Субдискретизация насыщенности : 4:2:0
Битовая глубина : 8 бит
Тип развёртки : Прогрессивная
Бит/(Пиксели*Кадры) : 0.225
Размер потока : 1,83 Гбайт (86%)
Заголовок : #stillet
Библиотека кодирования : x264 core 152 r2851bm ba24899
Настройки программы : cabac=1 / ref=10 / deblock=1:-2:-2 / analyse=0x3:0x113 / me=umh / subme=10 / psy=1 / psy_rd=1.00:0.15 / mixed_ref=1 / me_range=32 / chroma_me=1 / trellis=2 / 8x8dct=1 / cqm=0 / deadzone=21,11 / fast_pskip=0 / chroma_qp_offset=-3 / threads=8 / lookahead_threads=3 / sliced_threads=0 / nr=0 / decimate=0 / interlaced=0 / bluray_compat=0 / constrained_intra=0 / bframes=11 / b_pyramid=2 / b_adapt=2 / b_bias=0 / direct=3 / weightb=1 / open_gop=0 / weightp=2 / keyint=240 / keyint_min=23 / scenecut=40 / intra_refresh=0 / rc=2pass / mbtree=0 / bitrate=2361 / ratetol=1.0 / qcomp=0.60 / qpmin=0 / qpmax=69 / qpstep=4 / cplxblur=20.0 / qblur=0.5 / ip_ratio=1.40 / pb_ratio=1.30 / aq=1:1.00
Язык : English
Default : Да
Forced : Нет

Аудио
Идентификатор : 2
Формат : AC-3
Формат/Информация : Audio Coding 3
Коммерческое название : Dolby Digital
Идентификатор кодека : A_AC3
Продолжительность : 1 ч. 50 м.
Вид битрейта : Постоянный
Битрейт : 384 Кбит/сек
Каналы : 6 каналов
Channel layout : L R C LFE Ls Rs
Частота : 48,0 КГц
Частота кадров : 31,250 кадров/сек (1536 SPF)
Метод сжатия : С потерями
Размер потока : 305 Мбайт (14%)
Заголовок : iTunes
Язык : Russian
Service kind : Complete Main
Default : Да
Forced : Да

Текст #1
Идентификатор : 3
Формат : UTF-8
Идентификатор кодека : S_TEXT/UTF8
Идентификатор кодека/Информация : UTF-8 Plain Text
Продолжительность : 1 ч. 44 м.
Битрейт : 46 бит/сек
Count of elements : 1059
Размер потока : 35,7 Кбайт (0%)
Заголовок : Full
Язык : English
Default : Нет
Forced : Нет

Текст #2
Идентификатор : 4
Формат : UTF-8
Идентификатор кодека : S_TEXT/UTF8
Идентификатор кодека/Информация : UTF-8 Plain Text
Продолжительность : 1 ч. 50 м.
Битрейт : 47 бит/сек
Count of elements : 1156
Размер потока : 38,6 Кбайт (0%)
Заголовок : SDH
Язык : English
Default : Нет
Forced : Нет

Меню
00:00:00.000 : en:Chapter 01
00:01:12.238 : en:Chapter 02
00:14:48.554 : en:Chapter 03
00:29:59.380 : en:Chapter 04
00:44:19.281 : en:Chapter 05
00:59:12.090 : en:Chapter 06
01:16:38.802 : en:Chapter 07
01:29:46.005 : en:Chapter 08
01:44:56.290 : en:Chapter 09

piratbit.pw



Скачать Девушка-невидимка через торрент https://i114.fastpic.ru/big/2020/1019/25/ac6b09f2ce87e247e5e8f17f67dcb525.jpg Скачать фильм Девушка-невидимка через торрент бесплантно в хорошем качестве Описание: В юности Холли обнаружила, что стала невидимой для окружающих. Поначалу она не понимала, почему её никто не замечает, полагая, ... 10 10 8
Торрент: Зарегистрирован [2020-10-19 04:54] · скачан: 268 раз
Статус: √ проверено
Размер: 2.13 GB
Как cкачать? Как скачать Девушка-невидимка через торрент | qTorrent

% Раздел Тема Автор DL S | L
Фильмы 2019-2020 [DVDrip, WEB-DLRip, HDrip] (DUB, MVO) [ 1.41 GB ] Девушка-невидимка / Возвышаясь над тенью / Above the Shadows [2019 BDRip] - Twi7ter Скачать
33 | 1
Фильмы [HD 720p, 1080p] (Хороший звук DUB, MVO) [ 5.44 GB ] Девушка-невидимка / Возвышаясь над тенью / Above the Shadows [2019 BDRip 720p] bober100 Скачать
6 | 0
Фильмы 2019-2020 [DVDrip, WEB-DLRip, HDrip] (DUB, MVO) [ 1.41 GB ] Девушка-невидимка / Возвышаясь над тенью / Above the Shadows [2019 BDRip-AVC] bober100 Скачать
2 | 0
Фильмы (Blu-ray, BD-Remux, HDDVD) [ 18.62 GB ] Девушка-невидимка / Возвышаясь над тенью / Above the Shadows [2019 BD Remux 1080p] bober100 Скачать
1 | 0
Фильмы 2019-2020 [DVDrip, WEB-DLRip, HDrip] (DUB, MVO) [ 1.46 GB ] Девушка-невидимка / Возвышаясь над тенью / Above the Shadows [2019 BDRip] bober100 Скачать
5 | 0
Фильмы [HD 720p, 1080p] (Хороший звук DUB, MVO) [ 12.96 GB ] Девушка-невидимка / Возвышаясь над тенью / Above the Shadows [2019 BDRip 1080p] bober100 Скачать
11 | 0

28-11-2019 20:33  

Отключить всю рекламу на сайте

20-10-2020 14:32 Девушка-невидимка Скачать торрент  

Не плохой фильм.piratbit.pw



    Дорогой пользователь! Огромная просьба, поблагодарите релизера, оцените раздачу и оставьте свои комментарий, если Вы скачали Девушка-невидимка через торрент бесплатно! Внесите свою лепту в развитие PiratBit!
    Комментировать посты могут только пользователи прошедшие не сложную регистрацию
    Показать сообщения:    

    Девушка-невидимка через торрент
    Скачать бесплатно Девушка-невидимка
    Девушка-невидимка скачать торрент
    Девушка-невидимка смотреть онлайн
    Cкачать фильм Девушка-невидимка бесплатно
    Девушка-невидимка скачать торрент в хорошем качестве
    Девушка-невидимка смотреть онлайн бесплатно в хорошем качестве


    Вы не можете начинать темы
    Вы не можете отвечать на сообщения
    Вы не можете редактировать свои сообщения
    Вы не можете удалять свои сообщения
    Вы не можете голосовать в опросах
    Вы не можете прикреплять файлы к сообщениям
    Вы можете скачивать файлы