2 сезон

iTunes

WEBRip

1

2 сезон

iTunes

1 сезон

1 сезон

RePack

30

Новинка

ВАЖНО

ИГРА 18+

pack

RePack

MK11
pack

Легкие деньги

RePack

jed

RePack

fifa19

RePack

RDR2

RePack

NEED FOR SPEED™ PAYBACK

4 сезон

9 сезон

Бесстыжие 9 сезон

Все сериалы

все сериалы на PB.wtf

RePack

FAR CRY 5

Anonymous, доброе утро, мы не успеваем собрать деньги на оплату серверов за февраль, помогите нам пожалуйста в это трудное время. В качестве благодарности мы отключим Вам всю рекламу на сайте (укажите свой ник в строку Ваше имя)!

×
  
Magnet ссылка

Вратарь Галактики (Джаник Файзиев) [2020, Приключения, фантастика, WEB-DLRip-AVC] piratbit.pw

Вратарь Галактики через торрент piratbit.pw

Размер: 1.46 GB | Добавлен: 4 мес. 17 д. назад | Торрент скачан:198 раз
Скачать  

09-10-2020 14:34 Вратарь Галактики Скачать торрент  

Вратарь Галактики
Год выпуска: 2020
Страна: Россия
Выпущено: Телеканал «РОССИЯ 1», Бонанза Студио, Кинокомпания CTB
Жанр: Приключения, фантастика
Продолжительность: 01:58:23
Перевод: Не требуется
Субтитры: отсутствуют

Режиссер: Джаник Файзиев

rating


В ролях: Евгений Романцов, Мария Лисовая, Виктория Агалакова, Иван Иванович, Елизавета Тайченачева, Евгений Миронов, Юлия Винс, Христина Блохина, Валерия Букина, Станислав Рогачев, Елена Яковлева, Михаил Ефремов, Дмитрий Назаров, Михаил Стенин, Сослан Фидаров

Описание: 2071 год. Галактические войны разрушили Луну и изменили климат на Земле. Москва – в тропических лесах, а Нью-Йорк покрылся льдом. Над Москвой возвышается огромный инопланетный корабль – это стадион, на котором проходят зрелищные межгалактические соревнования по космоболу — игре, объединившей в себе спорт и гладиаторские бои. За матчами следит вся галактика. Играть в космобол могут только атлеты. Именно так называют тех, кто наделен необыкновенными способностями и может ими управлять. Космобол обожают все, кроме Антона, самого обычного парня, который всего лишь мечтает найти работу, чтобы помочь семье. Но однажды у него обнаруживают сверхспособности, и принимают в сборную. Теперь он игрок в космобол. Антон ещё не подозревает о том, какая роль уготована ему судьбой в этом матче, и что финальная игра станет сражением за Землю.

Качество: WEB-DLRip-AVC
Формат: MKV

Видео: 720x302 (2.40:1), 24 fps, MPEG-4 AVC, 1571 Кbps avg, 0.301 bit/pixel
Аудио: AC3, 48 kHz, 2 ch, ~192.00 kbps avg | русский |
скриншот  скриншот  скриншот  скриншот  скриншот  

Общее
Уникальный идентификатор : 126384371482918535273617298114677443786 (0x5F14BE9B19D1F4E75888059E05E20CCA)
Полное имя : Vratar.Galaktiki.2020.WEB-DLRip.1.46Gb.x264.mkv
Формат : Matroska
Версия формата : Version 4
Размер файла : 1,46 Гбайт
Продолжительность : 1 ч. 58 м.
Общий поток : 1 765 Кбит/сек
Название фильма : Вратарь Галактики (2020)
Дата кодирования : UTC 2020-10-09 14:23:28
Программа кодирования : mkvmerge v47.0.0 ('Black Flag') 64-bit
Библиотека кодирования : libebml v1.3.10 + libmatroska v1.5.2
Обложка : Yes
Attachments : cover.jpg

Видео
Идентификатор : 1
Формат : AVC
Формат/Информация : Advanced Video Codec
Профиль формата : High@L4.1
Настройки формата : CABAC / 11 Ref Frames
Параметр CABAC формата : Да
Параметр RefFrames формата : 11 кадров
Идентификатор кодека : V_MPEG4/ISO/AVC
Продолжительность : 1 ч. 58 м.
Битрейт : 1 571 Кбит/сек
Ширина : 720 пикселей
Высота : 302 пикселя
Соотношение сторон : 2,40:1
Режим частоты кадров : Постоянный
Частота кадров : 24,000 кадра/сек
Цветовое пространство : YUV
Субдискретизация насыщенности : 4:2:0
Битовая глубина : 8 бит
Тип развёртки : Прогрессивная
Бит/(Пиксели*Кадры) : 0.301
Размер потока : 1,30 Гбайт (89%)
Заголовок : #stillet
Библиотека кодирования : x264 core 152 r2851bm ba24899
Настройки программы : cabac=1 / ref=11 / deblock=1:-2:-2 / analyse=0x3:0x113 / me=umh / subme=10 / psy=1 / psy_rd=1.00:0.15 / mixed_ref=1 / me_range=32 / chroma_me=1 / trellis=2 / 8x8dct=1 / cqm=0 / deadzone=21,11 / fast_pskip=0 / chroma_qp_offset=-3 / threads=8 / lookahead_threads=3 / sliced_threads=0 / nr=0 / decimate=0 / interlaced=0 / bluray_compat=0 / constrained_intra=0 / bframes=10 / b_pyramid=2 / b_adapt=2 / b_bias=0 / direct=3 / weightb=1 / open_gop=0 / weightp=2 / keyint=240 / keyint_min=23 / scenecut=40 / intra_refresh=0 / rc=2pass / mbtree=0 / bitrate=1571 / ratetol=1.0 / qcomp=0.60 / qpmin=0 / qpmax=69 / qpstep=4 / cplxblur=20.0 / qblur=0.5 / ip_ratio=1.40 / pb_ratio=1.30 / aq=1:1.00
Язык : English
Default : Да
Forced : Нет

Аудио
Идентификатор : 2
Формат : AC-3
Формат/Информация : Audio Coding 3
Коммерческое название : Dolby Digital
Идентификатор кодека : A_AC3
Продолжительность : 1 ч. 58 м.
Вид битрейта : Постоянный
Битрейт : 192 Кбит/сек
Каналы : 2 канала
Channel layout : L R
Частота : 48,0 КГц
Частота кадров : 31,250 кадров/сек (1536 SPF)
Метод сжатия : С потерями
Размер потока : 163 Мбайт (11%)
Язык : Russian
Service kind : Complete Main
Default : Да
Forced : Да

piratbit.pw



Скачать Вратарь Галактики через торрент https://i114.fastpic.ru/big/2020/1009/7c/1ad81eae3c97bc76c0bfb97ddefd127c.jpg Скачать фильм Вратарь Галактики через торрент бесплантно в хорошем качестве Описание: 2071 год. Галактические войны разрушили Луну и изменили климат на Земле. Москва – в тропических лесах, а Нью-Йорк покрылся льдом. ... 9.2 10 12
Торрент: Зарегистрирован [2020-10-09 14:34] · скачан: 198 раз
Статус: T временная
Размер: 1.46 GB
Как cкачать? Как скачать Вратарь Галактики через торрент | UTorrent

% Раздел Тема Автор DL S | L
Наши новые фильмы 2020 - 2021 [ 2.18 GB ] Вратарь Галактики [2020 BDRip] [Русский] [] Twi7ter Скачать
21 | 0
Наши новые фильмы 2020 - 2021 [ 1.46 GB ] Вратарь Галактики [2020 BDRip] [FRA Transfer / ] bober100 Скачать
2 | 0
Наши новые фильмы 2020 - 2021 [ 1.46 GB ] Вратарь Галактики [2020 BDRip] [Русский] [] Twi7ter Скачать
5 | 0
Наши фильмы (Blu-ray, BD-Remux, HDDVD) [ 25.67 GB ] Вратарь Галактики [2020 Blu-ray 1080p] [FRA Transfer / ] bober100 Скачать
1 | 0
Наши фильмы (Blu-ray, BD-Remux, HDDVD) [ 18.32 GB ] Вратарь Галактики [2020 BD Remux 1080p] [FRA Transfer / ] bober100 Скачать
2 | 0
Наши фильмы (HD, WEB-DL 720p, 1080p) [ 5.97 GB ] Вратарь Галактики [2020 BDRip 720p] [] bober100 Скачать
2 | 0
Наши новые фильмы 2020 - 2021 [ 1.45 GB ] Вратарь Галактики [2020 HDRip-AVC] [RUS] [] - ExKinoRay Enigma2010 Скачать
15 | 0

28-11-2019 20:33  

Отключить всю рекламу на сайте

09-10-2020 14:59 Вратарь Галактики Скачать торрент  

Спасибо. Надо глянуть.piratbit.pw



    Дорогой пользователь! Огромная просьба, поблагодарите релизера, оцените раздачу и оставьте свои комментарий, если Вы скачали Вратарь Галактики через торрент бесплатно! Внесите свою лепту в развитие PiratBit!
    Комментировать посты могут только пользователи прошедшие не сложную регистрацию
    Показать сообщения:    

    Вратарь Галактики через торрент
    Скачать бесплатно Вратарь Галактики
    Вратарь Галактики скачать торрент
    Вратарь Галактики смотреть онлайн
    Cкачать фильм Вратарь Галактики бесплатно
    Вратарь Галактики скачать торрент в хорошем качестве
    Вратарь Галактики смотреть онлайн бесплатно в хорошем качестве


    Вы не можете начинать темы
    Вы не можете отвечать на сообщения
    Вы не можете редактировать свои сообщения
    Вы не можете удалять свои сообщения
    Вы не можете голосовать в опросах
    Вы не можете прикреплять файлы к сообщениям
    Вы можете скачивать файлы