2 сезон

iTunes

WEBRip

1

2 сезон

iTunes

1 сезон

1 сезон

RePack

30

Новинка

ВАЖНО

ИГРА 18+

pack

RePack

MK11
pack

Легкие деньги

RePack

jed

RePack

fifa19

RePack

RDR2

RePack

NEED FOR SPEED™ PAYBACK

4 сезон

9 сезон

Бесстыжие 9 сезон

Все сериалы

все сериалы на PB.wtf

RePack

FAR CRY 5

Anonymous, доброй ночи, мы не успеваем собрать деньги на оплату серверов за февраль, помогите нам пожалуйста в это трудное время. В качестве благодарности мы отключим Вам всю рекламу на сайте (укажите свой ник в строку Ваше имя)!

×
  
Magnet ссылка

Атакан. Кровавая легенда (Александр Гришин) [2020, Ужасы, WEB-DLRip-AVC] [iTunes] piratbit.pw

Атакан. Кровавая легенда через торрент piratbit.pw

Размер: 1.46 GB | Добавлен: 4 мес. 16 д. назад | Торрент скачан:108 раз
Скачать  

16-10-2020 04:43 Атакан. Кровавая легенда Скачать торрент  

Атакан. Кровавая легенда
«Зло всегда было рядом»

Год выпуска: 2020
Страна: Россия
Студия: Кинокомпания Водолей
Жанр: Ужасы
Продолжительность: 01:19:51
Перевод: Не требуется | iTunes
Субтитры: отсутствуют

Режиссер: Александр Гришин



В ролях: Ксения Плюснина, Владимир Кузнецов, Денис Лукичев, Анна Серпенева, Полина Строгая, Владислав Алтайский

Описание: Группа студентов-историков во главе с молодым преподавателем спускается в подземелья Петербурга, чтобы найти легендарный Атакан - проклятый камень, на котором веками язычники приносили человеческие жертвы. Исследуя тёмные коридоры, студенты с ужасом понимают, что не одни в этом месте.

Качество: WEB-DLRip-AVC
Формат: MKV

Видео: 1024x576 (16:9), 24 fps, MPEG-4 AVC, 2230 Кbps avg, 0.158 bit/pixel
Аудио: AC3, 48 kHz, 6 ch, ~384.00 kbps avg | русский |
скриншот  скриншот  скриншот  скриншот  скриншот  

Общее
Уникальный идентификатор: 82919944030180704576896060718404303249 (0x3E61CCE1BC83A541740398E10EAB7991)
Полное имя: Atakan.Krovavaj.Legenda.2020.WEB-DLRip.1.46Gb.x264.mkv
Формат: Matroska
Версия формата: Version 4
Размер файла: 1, 46 Гбайт
Продолжительность: 1 ч. 19 м.
Общий поток: 2 619 Кбит/сек
Название фильма: Атакан. Кровавая легенда (2020)
Дата кодирования: UTC 2020-10-15 22:43:57
Программа кодирования: mkvmerge v47.0.0 ('Black Flag') 64-bit
Библиотека кодирования: libebml v1.3.10 + libmatroska v1.5.2
Обложка: Yes
Attachments: cover.png

Видео
Идентификатор: 1
Формат: AVC
Формат/Информация: Advanced Video Codec
Профиль формата: High@L4.1
Настройки формата: CABAC / 12 Ref Frames
Параметр CABAC формата: Да
Параметр RefFrames формата: 12 кадров
Идентификатор кодека: V_MPEG4/ISO/AVC
Продолжительность: 1 ч. 19 м.
Битрейт: 2 230 Кбит/сек
Ширина: 1 024 пикселя
Высота: 576 пикселей
Соотношение сторон: 16:9
Режим частоты кадров: Постоянный
Частота кадров: 24, 000 кадра/сек
Цветовое пространство: YUV
Субдискретизация насыщенности: 4:2:0
Битовая глубина: 8 бит
Тип развёртки: Прогрессивная
Бит/(Пиксели*Кадры): 0.158
Размер потока: 1, 24 Гбайт (85%)
Заголовок: #stillet
Библиотека кодирования: x264 core 152 r2851bm ba24899
Настройки программы: cabac=1 / ref=12 / deblock=1:-2:-2 / analyse=0x3:0x113 / me=umh / subme=10 / psy=1 / psy_rd=1.00:0.15 / mixed_ref=1 / me_range=32 / chroma_me=1 / trellis=2 / 8x8dct=1 / cqm=0 / deadzone=21, 11 / fast_pskip=0 / chroma_qp_offset=-3 / threads=8 / lookahead_threads=3 / sliced_threads=0 / nr=0 / decimate=0 / interlaced=0 / bluray_compat=0 / constrained_intra=0 / bframes=11 / b_pyramid=2 / b_adapt=2 / b_bias=0 / direct=3 / weightb=1 / open_gop=0 / weightp=2 / keyint=240 / keyint_min=24 / scenecut=40 / intra_refresh=0 / rc=2pass / mbtree=0 / bitrate=2230 / ratetol=1.0 / qcomp=0.60 / qpmin=0 / qpmax=69 / qpstep=4 / cplxblur=20.0 / qblur=0.5 / ip_ratio=1.40 / pb_ratio=1.30 / aq=1:1.00
Язык: Russian
Default: Да
Forced: Нет

Аудио
Идентификатор: 2
Формат: AC-3
Формат/Информация: Audio Coding 3
Коммерческое название: Dolby Digital
Идентификатор кодека: A_AC3
Продолжительность: 1 ч. 19 м.
Вид битрейта: Постоянный
Битрейт: 384 Кбит/сек
Каналы: 6 каналов
Channel layout: L R C LFE Ls Rs
Частота: 48, 0 КГц
Частота кадров: 31, 250 кадров/сек (1536 SPF)
Метод сжатия: С потерями
Размер потока: 219 Мбайт (15%)
Заголовок: iTunes
Язык: Russian
Service kind: Complete Main
Default: Да
Forced: Нет

Меню
00:00:00.000: en:Глава 1
00:05:43.958: en:Глава 2
00:13:00.166: en:Глава 3
00:23:39.666: en:Глава 4
00:29:26.999: en:Глава 5
00:42:10.040: en:Глава 6
00:49:34.915: en:Глава 7
00:55:23.706: en:Глава 8
01:06:00.747: en:Глава 9
01:15:59.747: en:Глава 10

piratbit.pw



Скачать Атакан. Кровавая легенда через торрент https://i114.fastpic.ru/big/2020/1016/cf/6745e09f6628ad498f233e4ea72835cf.jpg Скачать фильм Атакан. Кровавая легенда через торрент бесплантно в хорошем качестве Описание: Группа студентов-историков во главе с молодым преподавателем спускается в подземелья Петербурга, чтобы найти легендарный Атакан - ... 10 10 7
Торрент: Зарегистрирован [2020-10-16 04:43] · скачан: 108 раз
Статус: √ проверено
Размер: 1.46 GB
Как cкачать? Как скачать Атакан. Кровавая легенда через торрент | UTorrent

% Раздел Тема Автор DL S | L
Наши фильмы (HD, WEB-DL 720p, 1080p) [ 2.91 GB ] Атакан. Кровавая легенда [2020 WEB-DL 1080p] bober100 Скачать
2 | 0
Наши новые фильмы 2020 - 2021 [ 744 MB ] Атакан. Кровавая легенда [2020 WEB-DLRip] bober100 Скачать
2 | 0
Наши новые фильмы 2020 - 2021 [ 1.37 GB ] Атакан. Кровавая легенда [2020 WEB-DLRip] bober100 Скачать
2 | 0

28-11-2019 20:33  

Отключить всю рекламу на сайте

    Дорогой пользователь! Огромная просьба, поблагодарите релизера, оцените раздачу и оставьте свои комментарий, если Вы скачали Атакан. Кровавая легенда через торрент бесплатно! Внесите свою лепту в развитие PiratBit!
    Комментировать посты могут только пользователи прошедшие не сложную регистрацию
    Показать сообщения:    

    Атакан. Кровавая легенда через торрент
    Скачать бесплатно Атакан. Кровавая легенда
    Атакан. Кровавая легенда скачать торрент
    Атакан. Кровавая легенда смотреть онлайн
    Cкачать фильм Атакан. Кровавая легенда бесплатно
    Атакан. Кровавая легенда скачать торрент в хорошем качестве
    Атакан. Кровавая легенда смотреть онлайн бесплатно в хорошем качестве


    Вы не можете начинать темы
    Вы не можете отвечать на сообщения
    Вы не можете редактировать свои сообщения
    Вы не можете удалять свои сообщения
    Вы не можете голосовать в опросах
    Вы не можете прикреплять файлы к сообщениям
    Вы можете скачивать файлы