Ссылка на приватное зеркало нашего сайта всего за 1$. Внимание количество ограничено!!!

2 сезон

iTunes

1 сезон

1

2 сезон

2 сезон

iTunes

1 сезон

RePack

30

Новинка

ВАЖНО

ИГРА 18+

pack

RePack

MK11
pack

Забери бонус

RePack

jed

!!Акция!!

Alien_Rage

RePack

fifa19

RePack

Assassins Creed: Odyssey

RePack

NEED FOR SPEED™ PAYBACK

4 сезон

9 сезон

Бесстыжие 9 сезон

Все сериалы

все сериалы на PB.wtf

RePack

FAR CRY 5
  

Час дьявола / Час очищения / The Cleansing Hour / The Devil's Hour (Дэмиен ЛеВек) [2019, Ужасы, фэнтези, BDRip-AVC] DUB [iTunes] piratbit.pw

Час дьявола через торрент piratbit.pw

Раздают: 10 [ 371 KB/s ]
Размер: 2.14 GB | Добавлен: 1 мес. 15 д. назад | Торрент скачан:126 раз
Скачать  

13-10-2020 03:11 Час дьявола Скачать торрент  

Час дьявола | Час очищения | The Cleansing Hour | The Devil's Hour
«С демонами шутки плохи»

Год выпуска: 2019
Страна: США
Студия: Skubalon
Жанр: Ужасы, фэнтези
Продолжительность: 01:34:56
Перевод: Дублированный | iTunes
Субтитры: отсутствуют

Режиссер: Дэмиен ЛеВек

rating

В ролях: Райан Гузман, Кайл Галлнер, Тара Карсиан, Джоэнна Дэвид, Эмма Холцер, Аликс Анджелис, Крис Лью Кум Хой, Джулия Намани, Мэтт Раймо, Дэниэл Хоффман-Гилл

Описание: Два приятеля решили заработать на жизнь проведением обряда экзорцизма. Свои действия они транслировали в прямом эфире, и к ним довольно быстро пришла популярность. В итоге парни делали новые выпуски практически каждый день. Конечно же, все это было отлично продуманной и профессионально выполненной мистификацией. Но на одном из шоу приятелям приходится столкнуться с настоящим кошмаром. Они и подумать не могли, что заигрывая с нечистой силой, столкнутся с ней в реальности.

Качество: BDRip-AVC
Формат: MKV

Видео: 1024x428 (2.40:1), 23.976 fps, MPEG-4 AVC ~ 2392 Kbps avg, 0.228 bit/pixel
Аудио: AC3, 48 kHz, 6 ch, ~384.00 kbps avg | русский | iTunes
Аудио: AC3, 48 kHz, 6 ch, ~448.00 kbps avg | английский | Оригинал
скриншот  скриншот  скриншот  скриншот  скриншот  

Общее
Уникальный идентификатор : 91477642145411460057597000408519427768 (0x44D1F3F971EC1CBD1D365C09105446B8)
Полное имя : The.Cleansing.Hour.2019.BDRip.2.14Gb.x264.mkv
Формат : Matroska
Версия формата : Version 4
Размер файла : 2, 14 Гбайт
Продолжительность : 1 ч. 34 м.
Общий поток : 3 223 Кбит/сек
Название фильма : Час дьявола / Час очищения / The Cleansing Hour (2019)
Дата кодирования : UTC 2020-10-13 00:00:28
Программа кодирования : mkvmerge v47.0.0 ('Black Flag') 64-bit
Библиотека кодирования : libebml v1.3.10 + libmatroska v1.5.2
Обложка : Yes
Attachments : cover.jpg

Видео
Идентификатор : 1
Формат : AVC
Формат/Информация : Advanced Video Codec
Профиль формата : High@L4.1
Настройки формата : CABAC / 11 Ref Frames
Параметр CABAC формата : Да
Параметр RefFrames формата : 11 кадров
Идентификатор кодека : V_MPEG4/ISO/AVC
Продолжительность : 1 ч. 34 м.
Битрейт : 2 392 Кбит/сек
Ширина : 1 024 пикселя
Высота : 428 пикселей
Соотношение сторон : 2, 40:1
Режим частоты кадров : Постоянный
Частота кадров : 23, 976 кадра/сек
Цветовое пространство : YUV
Субдискретизация насыщенности : 4:2:0
Битовая глубина : 8 бит
Тип развёртки : Прогрессивная
Бит/(Пиксели*Кадры) : 0.228
Размер потока : 1, 58 Гбайт (74%)
Заголовок : #stillet
Библиотека кодирования : x264 core 152 r2851bm ba24899
Настройки программы : cabac=1 / ref=11 / deblock=1:-2:-2 / analyse=0x3:0x113 / me=umh / subme=10 / psy=1 / psy_rd=1.00:0.15 / mixed_ref=1 / me_range=32 / chroma_me=1 / trellis=2 / 8x8dct=1 / cqm=0 / deadzone=21, 11 / fast_pskip=0 / chroma_qp_offset=-3 / threads=8 / lookahead_threads=3 / sliced_threads=0 / nr=0 / decimate=0 / interlaced=0 / bluray_compat=0 / constrained_intra=0 / bframes=12 / b_pyramid=2 / b_adapt=2 / b_bias=0 / direct=3 / weightb=1 / open_gop=0 / weightp=2 / keyint=240 / keyint_min=23 / scenecut=40 / intra_refresh=0 / rc=2pass / mbtree=0 / bitrate=2392 / ratetol=1.0 / qcomp=0.60 / qpmin=0 / qpmax=69 / qpstep=4 / cplxblur=20.0 / qblur=0.5 / ip_ratio=1.40 / pb_ratio=1.30 / aq=1:1.00
Язык : English
Default : Да
Forced : Нет

Аудио #1
Идентификатор : 2
Формат : AC-3
Формат/Информация : Audio Coding 3
Коммерческое название : Dolby Digital
Идентификатор кодека : A_AC3
Продолжительность : 1 ч. 34 м.
Вид битрейта : Постоянный
Битрейт : 384 Кбит/сек
Каналы : 6 каналов
Channel layout : L R C LFE Ls Rs
Частота : 48, 0 КГц
Частота кадров : 31, 250 кадров/сек (1536 SPF)
Метод сжатия : С потерями
Размер потока : 260 Мбайт (12%)
Заголовок : iTunes
Язык : Russian
Service kind : Complete Main
Default : Да
Forced : Да

Аудио #2
Идентификатор : 3
Формат : AC-3
Формат/Информация : Audio Coding 3
Коммерческое название : Dolby Digital
Идентификатор кодека : A_AC3
Продолжительность : 1 ч. 34 м.
Вид битрейта : Постоянный
Битрейт : 448 Кбит/сек
Каналы : 6 каналов
Channel layout : L R C LFE Ls Rs
Частота : 48, 0 КГц
Частота кадров : 31, 250 кадров/сек (1536 SPF)
Метод сжатия : С потерями
Размер потока : 304 Мбайт (14%)
Язык : English
Service kind : Complete Main
Default : Нет
Forced : Нет

Меню
00:00:00.000 : :Chapter 01
00:08:11.324 : :Chapter 02
00:14:08.014 : :Chapter 03
00:20:48.080 : :Chapter 04
00:28:01.305 : :Chapter 05
00:34:16.221 : :Chapter 06
00:41:57.807 : :Chapter 07
00:48:49.844 : :Chapter 08
00:56:34.725 : :Chapter 09
01:04:50.178 : :Chapter 10
01:12:03.694 : :Chapter 11
01:20:29.867 : :Chapter 12

piratbit.pw



Скачать Час дьявола через торрент https://i114.fastpic.ru/big/2020/1011/a1/9f1294f6a65afb19a0f3d0a81102fda1.jpg Скачать фильм Час дьявола через торрент бесплантно в хорошем качестве Описание: Два приятеля решили заработать на жизнь проведением обряда экзорцизма. Свои действия они транслировали в прямом эфире, и к ним ... 10 10 3
Торрент: Зарегистрирован [2020-10-13 03:11] · скачан: 126 раз
Статус: √ проверено
Размер: 2.14 GB
Как cкачать? Как скачать Час дьявола через торрент | qTorrent

28-11-2019 20:33  

Отключить всю рекламу на сайте

13-10-2020 18:14 Час дьявола Скачать торрент  

Такая дурь,пипец!piratbit.pw



    Дорогой пользователь! Огромная просьба, поблагодарите релизера, оцените раздачу и оставьте свои комментарий, если Вы скачали Час дьявола через торрент бесплатно! Внесите свою лепту в развитие PiratBit!
    Комментировать посты могут только пользователи прошедшие не сложную регистрацию
    Показать сообщения:    

    Час дьявола через торрент
    Скачать бесплатно Час дьявола
    Час дьявола скачать торрент
    Час дьявола смотреть онлайн
    Cкачать фильм Час дьявола бесплатно
    Час дьявола скачать торрент в хорошем качестве
    Час дьявола смотреть онлайн бесплатно в хорошем качестве


    Вы не можете начинать темы
    Вы не можете отвечать на сообщения
    Вы не можете редактировать свои сообщения
    Вы не можете удалять свои сообщения
    Вы не можете голосовать в опросах
    Вы не можете прикреплять файлы к сообщениям
    Вы можете скачивать файлы