Ссылка на приватное зеркало нашего сайта всего за 1$. Внимание количество ограничено!!!

2 сезон

iTunes

1 сезон

1

2 сезон

2 сезон

iTunes

1 сезон

RePack

30

Ultimate

ВАЖНО

ИГРА 18+

pack

RePack

MK11
pack

Забери бонус

RePack

jed

!!Акция!!

Alien_Rage

RePack

fifa19

RePack

Assassins Creed: Odyssey

RePack

NEED FOR SPEED™ PAYBACK

4 сезон

9 сезон

Бесстыжие 9 сезон

Все сериалы

все сериалы на PB.wtf

RePack

FAR CRY 5
  

2067: Петля времени / 2067 (Сет Ларни) [2020, Фантастика, драма, WEB-DLRip-AVC] [MVO] [@MUZOBOZ@] от MediaBit piratbit.pw

2067: Петля времени через торрент piratbit.pw

Раздают: 13 [ 114 KB/s ]
Размер: 2.13 GB | Добавлен: 1 мес. 17 д. назад | Торрент скачан:492 раза
Скачать  

07-10-2020 18:40 2067: Петля времени Скачать торрент  


2067: Петля времени / 2067
Информация о фильме:
Название: 2067: Петля времени
Оригинальное название: 2067
Год выхода: 2020
Жанр: Фантастика, драма
Режиссер: Сет Ларни

В ролях: Коди Смит-МакФи, Райан Квантен, Лианна Уолсмен, Дебора Мэйлман, Сана а Шейк, Финн Литтл, Дэмиэн Уолш-Хоулинг, Энди МакФи, Аарон Гленнэйн, Мэтт Тестро

Описание: 2067 год. Добро пожаловать в мир, где царит хаос: исчезли леса и растения, вымерли дикие животные, а люди оказались на грани вымирания из-за отсутствия кислорода. Неожиданное послание из будущего «Отправьте Итана Уайта» — последняя надежда человечества. Кто такой Итан Уайт? Сможет ли он спасти мир?

rating

Страна: Австралия
Студия: Elevate Production Finance, Futurism Studios
Продолжительность: 01:54:27
Перевод: Любительский (многоголосый, закадровый) - @MUZOBOZ@



Информация о файле:
Кодек: AVC
Формат: MKV
Качество: WEB-DLRip-AVC
Видео: MPEG-4 AVC, 1024x428 (2.40:1), 23.976 fps, 2027 kb/s, 0.193
Аудио RU: AC3, 2 ch, 48 kHz, 192 kbps
Аудио EN: AC3, 6 ch, 48 kHz, 448 kbps

x264 info: frame I:1311 Avg QP:13.49 size: 76005
x264 info: frame P:36353 Avg QP:16.84 size: 23337
x264 info: frame B:126991 Avg QP:18.71 size: 6200
x264 info: consecutive B-frames: 2.3% 2.8% 6.6% 30.5% 14.2% 28.4% 5.7% 4.6% 1.3% 0.7% 0.8% 1.0% 1.4%
=============================================
General
Unique ID : 278052200324939766011862521693980864307 (0xD12EE7E72704D61B20412BCEABD82F33)
Complete name : D:uTorrentРипы_от_wolf1245_MediaBit2067- Петля времени - 2067 (2020) from wolf1245 & MediaBit.mkv
Format : Matroska
Format version : Version 4
File size : 2.13 GiB
Duration : 1 h 54 min
Overall bit rate : 2 663 kb/s
Movie name : 2067: Петля времени / 2067 (2020) from wolf1245 & MediaBit
Encoded date : UTC 2020-10-07 18:30:46
Writing application : mkvmerge v51.0.0 ('I Wish') 64-bit
Writing library : libebml v1.4.0 + libmatroska v1.6.2
Video
ID : 1
Format : AVC
Format/Info : Advanced Video Codec
Format profile : High@L4.1
Format settings : CABAC / 12 Ref Frames
Format settings, CABAC : Yes
Format settings, Reference frames : 12 frames
Codec ID : V_MPEG4/ISO/AVC
Duration : 1 h 54 min
Bit rate : 2 027 kb/s
Width : 1 024 pixels
Height : 428 pixels
Display aspect ratio : 2.40:1
Frame rate mode : Constant
Frame rate : 23.976 (24000/1001) FPS
Color space : YUV
Chroma subsampling : 4:2:0
Bit depth : 8 bits
Scan type : Progressive
Bits/(Pixel*Frame) : 0.193
Stream size : 1.62 GiB (76%)
Title : wolf1245 & MediaBit
Writing library : x264 core 157 r2958 57baac4
Encoding settings : cabac=1 / ref=12 / deblock=1:-3:-3 / analyse=0x3:0x133 / me=umh / subme=11 / psy=1 / psy_rd=1.02:0.06 / mixed_ref=1 / me_range=48 / chroma_me=1 / trellis=2 / 8x8dct=1 / cqm=0 / deadzone=21,11 / fast_pskip=0 / chroma_qp_offset=-3 / threads=10 / lookahead_threads=2 / sliced_threads=0 / nr=0 / decimate=0 / interlaced=0 / bluray_compat=0 / constrained_intra=0 / bframes=12 / b_pyramid=2 / b_adapt=2 / b_bias=0 / direct=3 / weightb=1 / open_gop=0 / weightp=2 / keyint=240 / keyint_min=24 / scenecut=40 / intra_refresh=0 / rc_lookahead=60 / rc=2pass / mbtree=0 / bitrate=2027 / ratetol=1.0 / qcomp=0.60 / qpmin=0 / qpmax=69 / qpstep=4 / cplxblur=20.0 / qblur=0.5 / vbv_maxrate=50000 / vbv_bufsize=62500 / nal_hrd=none / filler=0 / ip_ratio=1.40 / pb_ratio=1.30 / aq=2:0.80
Language : English
Default : Yes
Forced : No
Color range : Limited
Color primaries : BT.709
Transfer characteristics : BT.709
Matrix coefficients : BT.709
Audio #1
ID : 2
Format : AC-3
Format/Info : Audio Coding 3
Commercial name : Dolby Digital
Codec ID : A_AC3
Duration : 1 h 54 min
Bit rate mode : Constant
Bit rate : 192 kb/s
Channel(s) : 2 channels
Channel layout : L R
Sampling rate : 48.0 kHz
Frame rate : 31.250 FPS (1536 SPF)
Compression mode : Lossy
Stream size : 157 MiB (7%)
Title : MVO [@MUZOBOZ@] MediaBit
Language : Russian
Service kind : Complete Main
Default : Yes
Forced : No
Audio #2
ID : 3
Format : AC-3
Format/Info : Audio Coding 3
Commercial name : Dolby Digital
Codec ID : A_AC3
Duration : 1 h 54 min
Bit rate mode : Constant
Bit rate : 448 kb/s
Channel(s) : 6 channels
Channel layout : L R C LFE Ls Rs
Sampling rate : 48.0 kHz
Frame rate : 31.250 FPS (1536 SPF)
Compression mode : Lossy
Stream size : 367 MiB (17%)
Title : ORIGINAL
Language : English
Service kind : Complete Main
Default : No
Forced : No
Релиз от: & &
piratbit.pw



Скачать 2067: Петля времени через торрент https://a.radikal.ru/a03/2010/55/6f048770db8c.jpg Скачать фильм 2067: Петля времени через торрент бесплантно в хорошем качестве Описание: 2067 год. Добро пожаловать в мир, где царит хаос: исчезли леса и растения, вымерли дикие животные, а люди оказались на грани ... 8.6 10 14
Торрент: Зарегистрирован [2020-10-07 18:40] · скачан: 492 раз
Статус: T временная
Размер: 2.13 GB
Как cкачать? Как скачать 2067: Петля времени через торрент | qTorrent

28-11-2019 20:33  

Отключить всю рекламу на сайте

11-10-2020 15:39 2067: Петля времени Скачать торрент  

нытья и смазливых сцен дохрена, смотрел на перемоткеpiratbit.pw



    Дорогой пользователь! Огромная просьба, поблагодарите релизера, оцените раздачу и оставьте свои комментарий, если Вы скачали 2067: Петля времени через торрент бесплатно! Внесите свою лепту в развитие PiratBit!
    Комментировать посты могут только пользователи прошедшие не сложную регистрацию
    Показать сообщения:    

    2067: Петля времени через торрент
    Скачать бесплатно 2067: Петля времени
    2067: Петля времени скачать торрент
    2067: Петля времени смотреть онлайн
    Cкачать фильм 2067: Петля времени бесплатно
    2067: Петля времени скачать торрент в хорошем качестве
    2067: Петля времени смотреть онлайн бесплатно в хорошем качестве


    Вы не можете начинать темы
    Вы не можете отвечать на сообщения
    Вы не можете редактировать свои сообщения
    Вы не можете удалять свои сообщения
    Вы не можете голосовать в опросах
    Вы не можете прикреплять файлы к сообщениям
    Вы можете скачивать файлы