Ссылка на приватное зеркало нашего сайта всего за 1$. Внимание количество ограничено!!!

2 сезон

iTunes

1 сезон

1

2 сезон

2 сезон

iTunes

1 сезон

RePack

30

Ultimate

ВАЖНО

ИГРА 18+

pack

RePack

MK11
pack

Забери бонус

RePack

jed

!!Акция!!

Alien_Rage

RePack

fifa19

RePack

Assassins Creed: Odyssey

RePack

NEED FOR SPEED™ PAYBACK

4 сезон

9 сезон

Бесстыжие 9 сезон

Все сериалы

все сериалы на PB.wtf

RePack

FAR CRY 5
  

Хищные воды: Западня / Тёмная бездна / Black Water: Abyss (Эндрю Трауки) [2020, ужасы, боевик, драма, BDRip-AVC] DUB [iTunes] piratbit.pw

Хищные воды: Западня через торрент piratbit.pw

Раздают: 3 [ 0 KB/s ]
Размер: 1.41 GB | Добавлен: 1 мес. 18 д. назад | Торрент скачан:77 раз
Скачать  

06-10-2020 05:16 Хищные воды: Западня Скачать торрент  

Хищные воды: Западня | Тёмная бездна | Black Water: Abyss
Год выпуска: 2020
Страна: Австралия, США
Выпущено: Cornerstone Pictures, ProdigyMovies, Thrills & Spills
Жанр: ужасы, боевик, драма
Продолжительность: 01:38:40
Перевод: Дублированный | iTunes
Субтитры: Русские (Full)

Режиссер: Эндрю Трауки

rating

В ролях: Джессика МакНэми, Люк Митчелл, Амали Голден, Бенджамин Хотжес, Энтони Шарп, Луис Тосио Окада, Руми Кикути, Анна Кубат, Николь Коллетт, Дэмиен Блеветт, Изабелла Шихан, Гленн Адамс

Описание: Пять любителей приключений отправляются на поиски тайной пещеры в Австралии. Друзья надеются на веселую вылазку, но разбушевавшаяся стихия преграждает обратный путь и приводит к ним нечто смертельно опасное – то, чего там не должно быть.

Качество: BDRip-AVC
Формат: MKV

Видео: 832x348 (2, 40:1), 23.976 fps, MPEG-4 AVC ~ 1667 Kbps avg, 0.240 bit/pixel
Аудио: AC3, 48 kHz, 6 ch, ~384.00 kbps avg | русский | iTunes
скриншот  скриншот  скриншот  скриншот  скриншот  

Общее
Уникальный идентификатор : 84260371817518007371933413904010460670 (0x3F63F512FAC86A4883A20ADBAB403DFE)
Полное имя : Black.Water.Abyss.2020.BDRip.1.41Gb.x264.mkv
Формат : Matroska
Версия формата : Version 4
Размер файла : 1, 41 Гбайт
Продолжительность : 1 ч. 38 м.
Общий поток : 2 050 Кбит/сек
Название фильма : Хищные воды: Западня / Тёмная бездна / Black Water: Abyss (2020)
Дата кодирования : UTC 2020-10-06 03:59:01
Программа кодирования : mkvmerge v47.0.0 ('Black Flag') 64-bit
Библиотека кодирования : libebml v1.3.10 + libmatroska v1.5.2
Обложка : Yes
Attachments : cover.jpg

Видео
Идентификатор : 1
Формат : AVC
Формат/Информация : Advanced Video Codec
Профиль формата : High@L4.1
Настройки формата : CABAC / 12 Ref Frames
Параметр CABAC формата : Да
Параметр RefFrames формата : 12 кадров
Идентификатор кодека : V_MPEG4/ISO/AVC
Продолжительность : 1 ч. 38 м.
Битрейт : 1 667 Кбит/сек
Ширина : 832 пикселя
Высота : 348 пикселей
Соотношение сторон : 2, 40:1
Режим частоты кадров : Постоянный
Частота кадров : 23, 976 кадра/сек
Цветовое пространство : YUV
Субдискретизация насыщенности : 4:2:0
Битовая глубина : 8 бит
Тип развёртки : Прогрессивная
Бит/(Пиксели*Кадры) : 0.240
Размер потока : 1, 15 Гбайт (81%)
Заголовок : #stillet
Библиотека кодирования : x264 core 152 r2851bm ba24899
Настройки программы : cabac=1 / ref=12 / deblock=1:-2:-2 / analyse=0x3:0x113 / me=umh / subme=10 / psy=1 / psy_rd=1.00:0.15 / mixed_ref=1 / me_range=32 / chroma_me=1 / trellis=2 / 8x8dct=1 / cqm=0 / deadzone=21, 11 / fast_pskip=0 / chroma_qp_offset=-3 / threads=8 / lookahead_threads=3 / sliced_threads=0 / nr=0 / decimate=0 / interlaced=0 / bluray_compat=0 / constrained_intra=0 / bframes=12 / b_pyramid=2 / b_adapt=2 / b_bias=0 / direct=3 / weightb=1 / open_gop=0 / weightp=2 / keyint=240 / keyint_min=23 / scenecut=40 / intra_refresh=0 / rc=2pass / mbtree=0 / bitrate=1667 / ratetol=1.0 / qcomp=0.60 / qpmin=0 / qpmax=69 / qpstep=4 / cplxblur=20.0 / qblur=0.5 / ip_ratio=1.40 / pb_ratio=1.30 / aq=1:1.00
Язык : English
Default : Да
Forced : Нет

Аудио
Идентификатор : 2
Формат : AC-3
Формат/Информация : Audio Coding 3
Коммерческое название : Dolby Digital
Идентификатор кодека : A_AC3
Продолжительность : 1 ч. 38 м.
Вид битрейта : Постоянный
Битрейт : 384 Кбит/сек
Каналы : 6 каналов
Channel layout : L R C LFE Ls Rs
Частота : 48, 0 КГц
Частота кадров : 31, 250 кадров/сек (1536 SPF)
Метод сжатия : С потерями
Размер потока : 271 Мбайт (19%)
Заголовок : iTunes
Язык : Russian
Service kind : Complete Main
Default : Да
Forced : Да

Текст
Идентификатор : 3
Формат : UTF-8
Идентификатор кодека : S_TEXT/UTF8
Идентификатор кодека/Информация : UTF-8 Plain Text
Продолжительность : 1 ч. 33 м.
Битрейт : 34 бит/сек
Count of elements : 902
Размер потока : 23, 8 Кбайт (0%)
Заголовок : Full
Язык : Russian
Default : Нет
Forced : Нет

Меню
00:00:00.000 : en:00:00:00.000
00:06:09.744 : en:00:06:09.744
00:12:47.225 : en:00:12:47.225
00:19:28.959 : en:00:19:28.959
00:24:02.316 : en:00:24:02.316
00:29:15.170 : en:00:29:15.170
00:37:25.326 : en:00:37:25.326
00:43:09.003 : en:00:43:09.003
00:49:28.924 : en:00:49:28.924
00:55:25.989 : en:00:55:25.989
01:01:00.365 : en:01:01:00.365
01:08:11.212 : en:01:08:11.212
01:15:20.766 : en:01:15:20.766
01:21:24.546 : en:01:21:24.546
01:26:50.747 : en:01:26:50.747
01:34:49.517 : en:01:34:49.517

piratbit.pw



Скачать Хищные воды: Западня через торрент https://i1.imageban.ru/out/2020/10/05/eacc5007d9a2efda17ef329551e3721f.png Скачать фильм Хищные воды: Западня через торрент бесплантно в хорошем качестве Описание: Пять любителей приключений отправляются на поиски тайной пещеры в Австралии. Друзья надеются на веселую вылазку, но ... 8.2 10 5
Торрент: Зарегистрирован [2020-10-06 05:16] · скачан: 77 раз
Статус: √ проверено
Размер: 1.41 GB
Как cкачать? Как скачать Хищные воды: Западня через торрент | qTorrent

% Раздел Тема Автор DL S | L
Фильмы [HD 720p, 1080p] (Хороший звук DUB, MVO) [ 5.74 GB ] Хищные воды: Западня / Тёмная бездна / Black Water: Abyss [2020 BDRip 720p] bober100 Скачать
3 | 0
Фильмы 2019-2020 [DVDrip, WEB-DLRip, HDrip] (DUB, MVO) [ 1.42 GB ] Хищные воды: Западня / Тёмная бездна / Black Water: Abyss [2020 BDRip] - Twi7ter Скачать
40 | 3
Фильмы [HD 720p, 1080p] (Хороший звук DUB, MVO) [ 10.66 GB ] Хищные воды: Западня / Тёмная бездна / Black Water: Abyss [2020 BDRip 1080p] bober100 Скачать
2 | 0
Фильмы (Blu-ray, BD-Remux, HDDVD) [ 15.08 GB ] Хищные воды: Западня / Тёмная бездна / Black Water: Abyss [2020 BD Remux 1080p] bober100 Скачать
1 | 0
Фильмы 2019-2020 [DVDrip, WEB-DLRip, HDrip] (DUB, MVO) [ 1.46 GB ] Хищные воды: Западня / Тёмная бездна / Black Water: Abyss [2020 HDRip] bober100 Скачать
6 | 0

28-11-2019 20:33  

Отключить всю рекламу на сайте

    Дорогой пользователь! Огромная просьба, поблагодарите релизера, оцените раздачу и оставьте свои комментарий, если Вы скачали Хищные воды: Западня через торрент бесплатно! Внесите свою лепту в развитие PiratBit!
    Комментировать посты могут только пользователи прошедшие не сложную регистрацию
    Показать сообщения:    

    Хищные воды: Западня через торрент
    Скачать бесплатно Хищные воды: Западня
    Хищные воды: Западня скачать торрент
    Хищные воды: Западня смотреть онлайн
    Cкачать фильм Хищные воды: Западня бесплатно
    Хищные воды: Западня скачать торрент в хорошем качестве
    Хищные воды: Западня смотреть онлайн бесплатно в хорошем качестве


    Вы не можете начинать темы
    Вы не можете отвечать на сообщения
    Вы не можете редактировать свои сообщения
    Вы не можете удалять свои сообщения
    Вы не можете голосовать в опросах
    Вы не можете прикреплять файлы к сообщениям
    Вы можете скачивать файлы