Ссылка на приватное зеркало нашего сайта всего за 1$. Внимание количество ограничено!!!

2 сезон

iTunes

1 сезон

1

2 сезон

2 сезон

iTunes

1 сезон

RePack

30

Ultimate

ВАЖНО

ИГРА 18+

pack

RePack

MK11
pack

Забери бонус

RePack

jed

!!Акция!!

Alien_Rage

RePack

fifa19

RePack

Assassins Creed: Odyssey

RePack

NEED FOR SPEED™ PAYBACK

4 сезон

9 сезон

Бесстыжие 9 сезон

Все сериалы

все сериалы на PB.wtf

RePack

FAR CRY 5
  

Призрак на кладбище / Ghost in the Graveyard (Дон Майкл Пол) [2019 г., Ужасы, триллер, WEB-DLRip-AVC] [MVO] [AlphaProject] от MediaBit piratbit.pw

Призрак на кладбище через торрент piratbit.pw

Размер: 1.43 GB | Добавлен: 1 мес. 19 д. назад | Торрент скачан:88 раз
Скачать  

06-10-2020 01:44 Призрак на кладбище Скачать торрент  


Призрак на кладбище / Ghost in the Graveyard
Информация о фильме:
Название: Призрак на кладбище
Оригинальное название: Ghost in the Graveyard
Год выхода: 2019
Жанр: Ужасы, триллер
Режиссер: Чарли Компаретто

В ролях: Келли Бёрглунд, Джейк Бьюзи, Оливия Ларсен, Ройс Джонсон, Джоа Кармоди, Мария Олсен, Зебеде Роу, Шило Веррико, Никки Блонски, Джозеф Д’Онофрио

Описание: Игра на кладбище оборачивается для маленькой Марты трагически, она упала в свежевырытую могилу и погибла. Спустя 10 лет, ее подруга Салли возвращается домой. После ее возвращения на кладбище находят труп мальчика, все указывает на убийство, странным остается наличие босых детских следов возле тела..

rating

Страна: США
Студия: FilmCore, FunHouse Features, Matchstick Movies
Продолжительность: 01:32:53
Перевод: Любительский (многоголосый, закадровый) - AlphaProject



Информация о файле:
Кодек: AVC
Формат: MKV
Качество: WEB-DLRip-AVC
Видео: MPEG-4 AVC, 1024x428 (2.40:1), 23.976 fps, 2011 kb/s, 0.191
Аудио RU: AC3, 2 ch, 48 kHz, 192 kbps
Субтитры: Английские

General
Unique ID : 260613993715194974685913383599491966739 (0xC4106DEFED49E2438DB1DE1B84B6E713)
Complete name : D:uTorrentРипы_от_wolf1245_MediaBit-Призрак на кладбище - Ghost in the Graveyard (2019) from wolf1245 & MediaBit.mkv
Format : Matroska
Format version : Version 4
File size : 1.43 GiB
Duration : 1 h 32 min
Overall bit rate : 2 204 kb/s
Movie name : / Призрак на кладбище / Ghost in the Graveyard (2019) from wolf1245 & MediaBit
Encoded date : UTC 2020-10-05 19:11:20
Writing application : mkvmerge v51.0.0 ('I Wish') 64-bit
Writing library : libebml v1.4.0 + libmatroska v1.6.2
Attachments : Призрак на кладбище
Video
ID : 1
Format : AVC
Format/Info : Advanced Video Codec
Format profile : High@L4.1
Format settings : CABAC / 12 Ref Frames
Format settings, CABAC : Yes
Format settings, Reference frames : 12 frames
Codec ID : V_MPEG4/ISO/AVC
Duration : 1 h 32 min
Bit rate : 2 011 kb/s
Width : 1 024 pixels
Height : 428 pixels
Display aspect ratio : 2.40:1
Frame rate mode : Constant
Frame rate : 23.976 (24000/1001) FPS
Color space : YUV
Chroma subsampling : 4:2:0
Bit depth : 8 bits
Scan type : Progressive
Bits/(Pixel*Frame) : 0.191
Stream size : 1.30 GiB (91%)
Title : wolf1245 & MediaBit
Writing library : x264 core 157 r2958 57baac4
Encoding settings : cabac=1 / ref=12 / deblock=1:-3:-3 / analyse=0x3:0x133 / me=umh / subme=11 / psy=1 / psy_rd=1.02:0.06 / mixed_ref=1 / me_range=48 / chroma_me=1 / trellis=2 / 8x8dct=1 / cqm=0 / deadzone=21,11 / fast_pskip=0 / chroma_qp_offset=-3 / threads=10 / lookahead_threads=2 / sliced_threads=0 / nr=0 / decimate=0 / interlaced=0 / bluray_compat=0 / constrained_intra=0 / bframes=12 / b_pyramid=2 / b_adapt=2 / b_bias=0 / direct=3 / weightb=1 / open_gop=0 / weightp=2 / keyint=240 / keyint_min=24 / scenecut=40 / intra_refresh=0 / rc_lookahead=60 / rc=2pass / mbtree=0 / bitrate=2011 / ratetol=1.0 / qcomp=0.60 / qpmin=0 / qpmax=69 / qpstep=4 / cplxblur=20.0 / qblur=0.5 / vbv_maxrate=50000 / vbv_bufsize=62500 / nal_hrd=none / filler=0 / ip_ratio=1.40 / pb_ratio=1.30 / aq=1:0.90
Language : English
Default : Yes
Forced : No
Color range : Limited
Color primaries : BT.709
Transfer characteristics : BT.709
Matrix coefficients : BT.709
Audio
ID : 2
Format : AC-3
Format/Info : Audio Coding 3
Commercial name : Dolby Digital
Codec ID : A_AC3
Duration : 1 h 32 min
Bit rate mode : Constant
Bit rate : 192 kb/s
Channel(s) : 2 channels
Channel layout : L R
Sampling rate : 48.0 kHz
Frame rate : 31.250 FPS (1536 SPF)
Compression mode : Lossy
Stream size : 127 MiB (9%)
Title : MVO [AlphaProject] MediaBit
Language : Russian
Service kind : Complete Main
Default : Yes
Forced : No
Text #1
ID : 3
Format : UTF-8
Codec ID : S_TEXT/UTF8
Codec ID/Info : UTF-8 Plain Text
Duration : 1 h 29 min
Bit rate : 41 b/s
Count of elements : 1070
Stream size : 27.0 KiB (0%)
Language : English
Default : No
Forced : No
Text #2
ID : 4
Format : UTF-8
Codec ID : S_TEXT/UTF8
Codec ID/Info : UTF-8 Plain Text
Duration : 1 h 31 min
Bit rate : 47 b/s
Count of elements : 1313
Stream size : 31.9 KiB (0%)
Title : SDH
Language : English
Default : No
Forced : No
Релиз от: & &
piratbit.pw



Скачать Призрак на кладбище через торрент https://a.radikal.ru/a27/2010/63/9ce1adec9d1e.jpg Скачать фильм Призрак на кладбище через торрент бесплантно в хорошем качестве Описание: Игра на кладбище оборачивается для маленькой Марты трагически, она упала в свежевырытую могилу и погибла. Спустя 10 лет, ее ... 10 10 5
Торрент: Зарегистрирован [2020-10-06 01:44] · скачан: 88 раз
Статус: T временная
Размер: 1.43 GB
Как cкачать? Как скачать Призрак на кладбище через торрент | qTorrent

28-11-2019 20:33  

Отключить всю рекламу на сайте

    Дорогой пользователь! Огромная просьба, поблагодарите релизера, оцените раздачу и оставьте свои комментарий, если Вы скачали Призрак на кладбище через торрент бесплатно! Внесите свою лепту в развитие PiratBit!
    Комментировать посты могут только пользователи прошедшие не сложную регистрацию
    Показать сообщения:    

    Призрак на кладбище через торрент
    Скачать бесплатно Призрак на кладбище
    Призрак на кладбище скачать торрент
    Призрак на кладбище смотреть онлайн
    Cкачать фильм Призрак на кладбище бесплатно
    Призрак на кладбище скачать торрент в хорошем качестве
    Призрак на кладбище смотреть онлайн бесплатно в хорошем качестве


    Вы не можете начинать темы
    Вы не можете отвечать на сообщения
    Вы не можете редактировать свои сообщения
    Вы не можете удалять свои сообщения
    Вы не можете голосовать в опросах
    Вы не можете прикреплять файлы к сообщениям
    Вы можете скачивать файлы