Ссылка на приватное зеркало нашего сайта всего за 1$. Внимание количество ограничено!!!

2 сезон

iTunes

1 сезон

1

2 сезон

2 сезон

iTunes

1 сезон

RePack

30

Новинка

ВАЖНО

ИГРА 18+

pack

RePack

MK11
pack

Забери бонус

RePack

jed

!!Акция!!

Alien_Rage

RePack

fifa19

RePack

Assassins Creed: Odyssey

RePack

NEED FOR SPEED™ PAYBACK

4 сезон

9 сезон

Бесстыжие 9 сезон

Все сериалы

все сериалы на PB.wtf

RePack

FAR CRY 5
  

Лесси. Возвращение домой / Lassie - Eine abenteuerliche Reise (Ханно Ольдердиссен) [2020, Драма, приключения, семейный, HDRip-AVC] [DUB] [iTunes] от MediaBit piratbit.pw

Лесси. Возвращение домой через торрент piratbit.pw

Размер: 1.45 GB | Добавлен: 1 мес. 20 д. назад | Торрент скачан:26 раз
Скачать  

03-10-2020 19:58 Лесси. Возвращение домой Скачать торрент  


Лесси. Возвращение домой / Lassie - Eine abenteuerliche Reise
Информация о фильме:
Название: Лесси. Возвращение домой
Оригинальное название: Lassie - Eine abenteuerliche Reise
Год выхода: 2020
Жанр: драма, приключения, семейный
Режиссер: Ханно Ольдердиссен

В ролях: Себастьян Беццель, Анна Мария Мюэ, Нико Маришка, Белла Бадинг, Маттиас Хабих, Йохан фон Бюлов, Сина Бьянка Хеншел, Яна Палласке, Юстус фон Донаньи, Кристоф Летковски

Описание: По стечению обстоятельств молодую колли по имени Лесси разлучают с хозяином и отправляют жить в богатое поместье. Однако Лесси, храня память о своем настоящем друге, сбегает из особняка, чтобы побывать в удивительных местах, завести новых знакомых и даже прокатиться на яхте по дороге домой...

rating

Страна: Германия
Студия: Warner Bros. Film Productions Germany, Henning Ferber Produktion, Scoring Berlin
Продолжительность: 01:36:24
Перевод: Дублированное - iTunes



Информация о файле:
Кодек: AVC
Формат: MKV
Качество: HDRip-AVC
Видео: MPEG-4 AVC, 1024x428 (2.40:1), 23.976 fps, 1729 kbps, 0.165
Аудио RU: AC3, 6 ch, 48 kHz, 384 kbps
Субтитры: Russian (Full), English, German
Навигация по главам: Есть

x264 info: frame I:1311 Avg QP:19.29 size: 81090
x264 info: frame P:38607 Avg QP:23.32 size: 18353
x264 info: frame B:98774 Avg QP:24.75 size: 4403
x264 info: consecutive B-frames: 6.3% 6.7% 13.1% 28.5% 14.1% 19.7% 6.0% 4.6% 0.5% 0.2% 0.1% 0.1%
===============================================
General
Unique ID : 57416012111116492143127370287136563282 (0x2B31EBF49C4965497A86811CD812E052)
Complete name : D:uTorrentРипы_от_wolf1245_MediaBitLassie - Eine abenteuerliche Reise (2020) from wolf1245 & MediaBit.mkv
Format : Matroska
Format version : Version 4
File size : 1.45 GiB
Duration : 1 h 36 min
Overall bit rate : 2 146 kb/s
Movie name : Lassie - Eine abenteuerliche Reise (2020) from wolf1245 & MediaBit
Encoded date : UTC 2020-10-03 19:47:12
Writing application : mkvmerge v50.0.0 ('Awakenings') 64-bit
Writing library : libebml v1.4.0 + libmatroska v1.6.2
Video
ID : 1
Format : AVC
Format/Info : Advanced Video Codec
Format profile : High@L4.1
Format settings : CABAC / 11 Ref Frames
Format settings, CABAC : Yes
Format settings, Reference frames : 11 frames
Codec ID : V_MPEG4/ISO/AVC
Duration : 1 h 36 min
Bit rate : 1 729 kb/s
Width : 1 024 pixels
Height : 428 pixels
Display aspect ratio : 2.40:1
Frame rate mode : Constant
Frame rate : 23.976 (24000/1001) FPS
Color space : YUV
Chroma subsampling : 4:2:0
Bit depth : 8 bits
Scan type : Progressive
Bits/(Pixel*Frame) : 0.165
Stream size : 1.16 GiB (81%)
Title : wolf1245 & MediaBit
Writing library : x264 core 157 r2958 57baac4
Encoding settings : cabac=1 / ref=11 / deblock=1:-3:-3 / analyse=0x3:0x133 / me=umh / subme=11 / psy=1 / psy_rd=1.00:0.06 / mixed_ref=1 / me_range=48 / chroma_me=1 / trellis=2 / 8x8dct=1 / cqm=0 / deadzone=21,11 / fast_pskip=0 / chroma_qp_offset=-3 / threads=10 / lookahead_threads=2 / sliced_threads=0 / nr=0 / decimate=0 / interlaced=0 / bluray_compat=0 / constrained_intra=0 / bframes=11 / b_pyramid=2 / b_adapt=2 / b_bias=0 / direct=3 / weightb=1 / open_gop=0 / weightp=2 / keyint=240 / keyint_min=24 / scenecut=40 / intra_refresh=0 / rc_lookahead=60 / rc=2pass / mbtree=0 / bitrate=1729 / ratetol=1.0 / qcomp=0.60 / qpmin=0 / qpmax=69 / qpstep=4 / cplxblur=20.0 / qblur=0.5 / vbv_maxrate=50000 / vbv_bufsize=62500 / nal_hrd=none / filler=0 / ip_ratio=1.40 / pb_ratio=1.30 / aq=1:1.00
Default : Yes
Forced : No
Color range : Limited
Color primaries : BT.709
Transfer characteristics : BT.709
Matrix coefficients : BT.709
Audio
ID : 2
Format : AC-3
Format/Info : Audio Coding 3
Commercial name : Dolby Digital
Codec ID : A_AC3
Duration : 1 h 36 min
Bit rate mode : Constant
Bit rate : 384 kb/s
Channel(s) : 6 channels
Channel layout : L R C LFE Ls Rs
Sampling rate : 48.0 kHz
Frame rate : 31.250 FPS (1536 SPF)
Compression mode : Lossy
Stream size : 265 MiB (18%)
Title : DUB | iTunes
Language : Russian
Service kind : Complete Main
Default : Yes
Forced : No
Text #1
ID : 3
Format : UTF-8
Codec ID : S_TEXT/UTF8
Codec ID/Info : UTF-8 Plain Text
Duration : 1 h 32 min
Bit rate : 84 b/s
Count of elements : 1099
Stream size : 57.3 KiB (0%)
Title : Full
Language : Russian
Default : No
Forced : No
Text #2
ID : 4
Format : PGS
Muxing mode : zlib
Codec ID : S_HDMV/PGS
Codec ID/Info : Picture based subtitle format used on BDs/HD-DVDs
Duration : 1 h 29 min
Bit rate : 28.6 kb/s
Count of elements : 2248
Stream size : 18.4 MiB (1%)
Language : English
Default : No
Forced : No
Text #3
ID : 5
Format : PGS
Muxing mode : zlib
Codec ID : S_HDMV/PGS
Codec ID/Info : Picture based subtitle format used on BDs/HD-DVDs
Duration : 1 h 33 min
Bit rate : 36.4 kb/s
Count of elements : 2816
Stream size : 24.3 MiB (2%)
Language : German
Default : No
Forced : No
Menu
00:00:00.000 : :00:00:00.000
00:07:57.560 : :00:07:57.560
00:14:58.898 : :00:14:58.898
00:25:38.412 : :00:25:38.412
00:34:07.128 : :00:34:07.128
00:41:51.759 : :00:41:51.759
00:49:47.693 : :00:49:47.693
00:58:28.004 : :00:58:28.004
01:07:27.794 : :01:07:27.794
01:15:57.052 : :01:15:57.052
01:23:46.521 : :01:23:46.521
01:30:52.197 : :01:30:52.197
Релиз от: & &
piratbit.pw



Скачать Лесси. Возвращение домой через торрент https://b.radikal.ru/b22/2010/d0/7412789551af.jpg Скачать фильм Лесси. Возвращение домой через торрент бесплантно в хорошем качестве Описание: По стечению обстоятельств молодую колли по имени Лесси разлучают с хозяином и отправляют жить в богатое поместье. Однако Лесси, ... 10 10 3
Торрент: Зарегистрирован [2020-10-03 19:58] · скачан: 26 раз
Статус: % проверяется
Размер: 1.45 GB
Как cкачать? Как скачать Лесси. Возвращение домой через торрент | qTorrent



Последний раз редактировалось: Lithuania (2020-10-04 10:16), всего редактировалось 2 раз(а)

28-11-2019 20:33  

Отключить всю рекламу на сайте

04-10-2020 05:34 Лесси. Возвращение домой Скачать торрент  

Ваши полноразмерные скриншоты не отображаются.piratbit.pw



    Дорогой пользователь! Огромная просьба, поблагодарите релизера, оцените раздачу и оставьте свои комментарий, если Вы скачали Лесси. Возвращение домой через торрент бесплатно! Внесите свою лепту в развитие PiratBit!
    Комментировать посты могут только пользователи прошедшие не сложную регистрацию
    Показать сообщения:    

    Лесси. Возвращение домой через торрент
    Скачать бесплатно Лесси. Возвращение домой
    Лесси. Возвращение домой скачать торрент
    Лесси. Возвращение домой смотреть онлайн
    Cкачать фильм Лесси. Возвращение домой бесплатно
    Лесси. Возвращение домой скачать торрент в хорошем качестве
    Лесси. Возвращение домой смотреть онлайн бесплатно в хорошем качестве


    Вы не можете начинать темы
    Вы не можете отвечать на сообщения
    Вы не можете редактировать свои сообщения
    Вы не можете удалять свои сообщения
    Вы не можете голосовать в опросах
    Вы не можете прикреплять файлы к сообщениям
    Вы можете скачивать файлы