1 сезон

1 сезон

iTunes

1

КиноПоиск HD

Кинопоиск HD

iTunes

13

1 сезон

RePack

30

Ultimate

ВАЖНО

ИГРА 18+

pack

RePack

MK11
pack

Легкие деньги

RePack

jed

RePack

fifa19

RePack

RDR2

RePack

NEED FOR SPEED™ PAYBACK

4 сезон

9 сезон

Бесстыжие 9 сезон

Все сериалы

все сериалы на PB.wtf

RePack

FAR CRY 5
  
Magnet ссылка

Убийца / Sicario (Дени Вильнёв) [2015, Боевик, триллер, драма, криминал, детектив, BDRip-AVC] [AVO] (Goblin) piratbit.pw

Убийца через торрент piratbit.pw

Размер: 2.18 GB | Добавлен: 6 мес. назад | Торрент скачан:37 раз
Скачать  

02-10-2020 20:30 Убийца Скачать торрент  

Убийца / Sicario

«The border is just another line to cross»


Год выхода: 2015
Страна: США, Мексика
Жанр: Боевик, триллер, драма, криминал, детектив
Продолжительность: 02:01:20

Перевод: Авторский (одноголосый, закадровый) // Дмитрий "Goblin" Пучков
Субтитры: Русские (полные (3 вида), форсированные), Английские (полные, форсированные, SDH).
Оригинальная аудиодорожка: Английский

Режиссер: Дени Вильнёв / Denis Villeneuve

В ролях: Эмили Блант, Бенисио Дель Торо, Джош Бролин, Виктор Гарбер, Джон Бернтал, Дэниэл Калуя, Джеффри Донован, Рауль Трухильо, Хулио Седильо, Хэнк Роджерсон

О фильме: Безлюдные пустоши, по которым проходит граница между Мексикой и США, – это территория без правил, поле битвы между мексиканскими наркокартелями и американскими спецслужбами. Агент ФБР Кейт Мэйсер, которая работает в приграничных районах, старается придерживаться собственных идеалов, хотя и начинает ощущать, что исход войны с наркотрафиком складывается не в пользу служителей закона.

Однажды ей предоставляется шанс принять участие в работе элитного подразделения по борьбе с наркотиками, возглавляемого агентом Мэттом Грейвером. Самый загадочный участник команды – местный консультант, человек без имени, привычек, и, кажется, без прошлого. Его истинное лицо откроется только в ходе рискованной операции, во время которой Кейт будет вынуждена поступиться собственными принципами, чтобы остаться в живых.



Автор рипа: HRIME

Сэмпл: скачать

Качество: BDRip-AVC
Формат: MKV
Видео: 1080 x 450; 23.976 fps; 1624 kbps; 0.139 bit/pixel
Аудио #1: RUS 48 kHz, AC3 Dolby Digital, 3/2 (L,C,R,l,r) + LFE ch, ~448 kbps
Аудио #2: ENG 48 kHz, AC3 Dolby Digital, 3/2 (L,C,R,l,r) + LFE ch, ~448 kbps
Формат субтитров: softsub (SRT)

скриншот  скриншот  скриншот  

Код:

Общее
Уникальный идентификатор                 : 305829597294337984296037684421814092716 (0xE614A34F709844E2A627418E136B83AC)
Полное имя                               : Ubiitsa.2015.DUAL.BDRip-AVC.AC3.-HRIME.mkv
Формат                                   : Matroska
Версия формата                           : Version 4
Размер файла                             : 2,18 Гбайт
Продолжительность                        : 2 ч. 1 м.
Общий поток                              : 2 571 Кбит/сек
Название фильма                          : Sicario.2015.Denis.Villeneuve
Дата кодирования                         : UTC 2020-09-14 02:45:44
Программа кодирования                    : mkvmerge v50.0.0 ('Awakenings') 64-bit
Библиотека кодирования                   : libebml v1.4.0 + libmatroska v1.6.2
Обложка                                  : Yes
Attachments                              : cover.jpg

Видео
Идентификатор                            : 1
Формат                                   : AVC
Формат/Информация                        : Advanced Video Codec
Профиль формата                          : High@L4
Настройки формата                        : CABAC / 12 Ref Frames
Параметр CABAC формата                   : Да
Параметр RefFrames формата               : 12 кадров
Идентификатор кодека                     : V_MPEG4/ISO/AVC
Продолжительность                        : 2 ч. 1 м.
Битрейт                                  : 1 669 Кбит/сек
Ширина                                   : 1 080 пикселей
Высота                                   : 450 пикселей
Соотношение сторон                       : 2,40:1
Режим частоты кадров                     : Постоянный
Частота кадров                           : 23,976 (24000/1001) кадра/сек
Цветовое пространство                    : YUV
Субдискретизация насыщенности            : 4:2:0
Битовая глубина                          : 8 бит
Тип развёртки                            : Прогрессивная
Бит/(Пиксели*Кадры)                      : 0.143
Размер потока                            : 1,41 Гбайт (65%)
Заголовок                                : HRIME
Библиотека кодирования                   : x264 core 160 r3000 33f9e14
Настройки программы                      : cabac=1 / ref=12 / deblock=1:-2:-1 / analyse=0x3:0x113 / me=umh / subme=11 / psy=1 / psy_rd=1.00:0.00 / mixed_ref=1 / me_range=32 / chroma_me=1 / trellis=2 / 8x8dct=1 / cqm=0 / deadzone=21,11 / fast_pskip=0 / chroma_qp_offset=-2 / threads=6 / lookahead_threads=1 / sliced_threads=0 / nr=0 / decimate=0 / interlaced=0 / bluray_compat=0 / constrained_intra=0 / bframes=14 / b_pyramid=2 / b_adapt=2 / b_bias=0 / direct=3 / weightb=1 / open_gop=0 / weightp=2 / keyint=230 / keyint_min=23 / scenecut=40 / intra_refresh=0 / rc_lookahead=60 / rc=crf / mbtree=0 / crf=16.8 / qcomp=0.65 / qpmin=0 / qpmax=69 / qpstep=4 / vbv_maxrate=25000 / vbv_bufsize=31250 / crf_max=0.0 / nal_hrd=none / filler=0 / ip_ratio=1.40 / pb_ratio=1.30 / aq=3:0.70
Язык                                     : English
Default                                  : Да
Forced                                   : Нет

Аудио #1
Идентификатор                            : 2
Формат                                   : AC-3
Формат/Информация                        : Audio Coding 3
Коммерческое название                    : Dolby Digital
Идентификатор кодека                     : A_AC3
Продолжительность                        : 2 ч. 1 м.
Вид битрейта                             : Постоянный
Битрейт                                  : 448 Кбит/сек
Каналы                                   : 6 каналов
Channel layout                           : L R C LFE Ls Rs
Частота                                  : 48,0 КГц
Частота кадров                           : 31,250 кадров/сек (1536 SPF)
Метод сжатия                             : С потерями
Размер потока                            : 389 Мбайт (17%)
Заголовок                                : AVO // Goblin
Язык                                     : Russian
Service kind                             : Complete Main
Default                                  : Да
Forced                                   : Нет

Аудио #2
Идентификатор                            : 3
Формат                                   : AC-3
Формат/Информация                        : Audio Coding 3
Коммерческое название                    : Dolby Digital
Идентификатор кодека                     : A_AC3
Продолжительность                        : 2 ч. 1 м.
Вид битрейта                             : Постоянный
Битрейт                                  : 448 Кбит/сек
Каналы                                   : 6 каналов
Channel layout                           : L R C LFE Ls Rs
Частота                                  : 48,0 КГц
Частота кадров                           : 31,250 кадров/сек (1536 SPF)
Метод сжатия                             : С потерями
Размер потока                            : 389 Мбайт (17%)
Заголовок                                : Original
Язык                                     : English
Service kind                             : Complete Main
Default                                  : Нет
Forced                                   : Нет

Текст #1
Идентификатор                            : 4
Формат                                   : UTF-8
Идентификатор кодека                     : S_TEXT/UTF8
Идентификатор кодека/Информация          : UTF-8 Plain Text
Продолжительность                        : 1 ч. 55 м.
Битрейт                                  : 7 бит/сек
Count of elements                        : 169
Размер потока                            : 6,55 Кбайт (0%)
Заголовок                                : Forced / Voronine
Язык                                     : Russian
Default                                  : Да
Forced                                   : Нет

Текст #2
Идентификатор                            : 5
Формат                                   : UTF-8
Идентификатор кодека                     : S_TEXT/UTF8
Идентификатор кодека/Информация          : UTF-8 Plain Text
Продолжительность                        : 1 ч. 54 м.
Битрейт                                  : 61 бит/сек
Count of elements                        : 1037
Размер потока                            : 52,1 Кбайт (0%)
Заголовок                                : Full / Matveev
Язык                                     : Russian
Default                                  : Нет
Forced                                   : Нет

Текст #3
Идентификатор                            : 6
Формат                                   : UTF-8
Идентификатор кодека                     : S_TEXT/UTF8
Идентификатор кодека/Информация          : UTF-8 Plain Text
Продолжительность                        : 1 ч. 55 м.
Битрейт                                  : 69 бит/сек
Count of elements                        : 1079
Размер потока                            : 58,2 Кбайт (0%)
Заголовок                                : Full / Voronine
Язык                                     : Russian
Default                                  : Нет
Forced                                   : Нет

Текст #4
Идентификатор                            : 7
Формат                                   : UTF-8
Идентификатор кодека                     : S_TEXT/UTF8
Идентификатор кодека/Информация          : UTF-8 Plain Text
Продолжительность                        : 1 ч. 55 м.
Битрейт                                  : 79 бит/сек
Count of elements                        : 1278
Размер потока                            : 67,3 Кбайт (0%)
Заголовок                                : Full / Voronine SDH
Язык                                     : Russian
Default                                  : Нет
Forced                                   : Нет

Текст #5
Идентификатор                            : 8
Формат                                   : UTF-8
Идентификатор кодека                     : S_TEXT/UTF8
Идентификатор кодека/Информация          : UTF-8 Plain Text
Продолжительность                        : 1 ч. 33 м.
Битрейт                                  : 4 бит/сек
Count of elements                        : 138
Размер потока                            : 2,83 Кбайт (0%)
Заголовок                                : Forced
Язык                                     : English
Default                                  : Нет
Forced                                   : Нет

Текст #6
Идентификатор                            : 9
Формат                                   : UTF-8
Идентификатор кодека                     : S_TEXT/UTF8
Идентификатор кодека/Информация          : UTF-8 Plain Text
Продолжительность                        : 1 ч. 50 м.
Битрейт                                  : 44 бит/сек
Count of elements                        : 1044
Размер потока                            : 35,9 Кбайт (0%)
Заголовок                                : Full
Язык                                     : English
Default                                  : Нет
Forced                                   : Нет

Текст #7
Идентификатор                            : 10
Формат                                   : UTF-8
Идентификатор кодека                     : S_TEXT/UTF8
Идентификатор кодека/Информация          : UTF-8 Plain Text
Продолжительность                        : 1 ч. 53 м.
Битрейт                                  : 48 бит/сек
Count of elements                        : 1231
Размер потока                            : 40,1 Кбайт (0%)
Заголовок                                : SDH
Язык                                     : English
Default                                  : Нет
Forced                                   : Нет

Меню
00:00:00.000                             : en:Chapter 1
00:07:14.350                             : en:Chapter 2
00:12:55.107                             : en:Chapter 3
00:20:04.369                             : en:Chapter 4
00:25:24.814                             : en:Chapter 5
00:32:11.596                             : en:Chapter 6
00:39:24.820                             : en:Chapter 7
00:46:15.314                             : en:Chapter 8
00:53:24.576                             : en:Chapter 9
01:01:40.321                             : en:Chapter 10
01:10:49.119                             : en:Chapter 11
01:18:02.886                             : en:Chapter 12
01:30:59.370                             : en:Chapter 13
01:36:57.770                             : en:Chapter 14
01:47:42.038                             : en:Chapter 15
01:54:12.804                             : en:Chapter 16

Код:

avs [info]: 1080x450p 1:1 @ 24000/1001 fps (cfr)
x264 [info]: using SAR=1/1
x264 [info]: using cpu capabilities: MMX2 SSE2Fast SSSE3 SSE4.2 AVX
x264 [info]: profile High, level 4.0, 4:2:0, 8-bit
x264 [info]: frame I:1203  Avg QP:12.56  size: 64775
x264 [info]: frame P:31364 Avg QP:15.33  size: 21242
x264 [info]: frame B:141986 Avg QP:17.58  size:  5458
x264 [info]: consecutive B-frames:  1.6%  1.0%  4.1% 12.1% 15.9% 30.1%  9.7%  6.3%  5.1%  3.0%  3.0%  2.2%  2.3%  2.1%  1.5%
x264 [info]: mb I  I16..4: 11.0% 64.6% 24.4%
x264 [info]: mb P  I16..4:  1.0%  6.2%  1.7%  P16..4: 30.6% 36.8% 14.1%  0.0%  0.0%    skip: 9.6%
x264 [info]: mb B  I16..4:  0.1%  0.7%  0.2%  B16..8: 32.0% 19.1%  3.1%  direct: 3.3%  skip:41.5%  L0:45.3% L1:44.4% BI:10.3%
x264 [info]: 8x8 transform intra:67.4% inter:52.4%
x264 [info]: direct mvs  spatial:99.9% temporal:0.1%
x264 [info]: coded y,uvDC,uvAC intra: 75.8% 77.1% 62.1% inter: 14.9% 12.2% 6.7%
x264 [info]: i16 v,h,dc,p: 59% 10%  7% 24%
x264 [info]: i8 v,h,dc,ddl,ddr,vr,hd,vl,hu: 16% 10% 12%  8% 10% 10% 11% 10% 12%
x264 [info]: i4 v,h,dc,ddl,ddr,vr,hd,vl,hu: 34%  9%  8%  7%  9%  9%  8%  7%  9%
x264 [info]: i8c dc,h,v,p: 33% 35% 20% 12%
x264 [info]: Weighted P-Frames: Y:3.1% UV:1.6%
x264 [info]: ref P L0: 48.1%  6.6% 16.9%  6.9%  5.6%  4.1%  3.6%  1.9%  1.8%  1.5%  1.5%  1.3%  0.1%  0.0%
x264 [info]: ref B L0: 67.2% 13.0%  7.0%  3.5%  2.6%  2.1%  1.7%  1.1%  0.9%  0.6%  0.2%
x264 [info]: ref B L1: 92.1%  7.9%
x264 [info]: kb/s:1669.22
encoded 174553 frames, 4.10 fps, 1669.22 kb/s

Цитата:

  • За перевод Д.Пучкова спасибо karasidi. Присутствует ненормативная лексика!

  • piratbit.pw



    Скачать Убийца через торрент http://c.radikal.ru/c32/2009/e6/bb107f79379e.jpg Скачать фильм Убийца через торрент бесплантно в хорошем качестве О фильме: Безлюдные пустоши, по которым проходит граница между Мексикой и США, – это территория без правил, поле битвы между мексиканскими ... 10 10 3
    Торрент: Зарегистрирован [2020-10-02 20:30] · скачан: 37 раз
    Статус: √ проверено
    Размер: 2.18 GB
    Как cкачать? Как скачать Убийца через торрент | UTorrent

    % Раздел Тема Автор DL S | L
    Ultra HD (UHD: 2K, 4K, 8K) — видео сверхвысокой чёткости [ 70.29 GB ] Убийца / Sicario [2015 UHD BDRemux 2160p] + 5xAVO sheker187 Скачать
    1 | 0
    Фильмы [HD 720p, 1080p] (Хороший звук DUB, MVO) [ 6.08 GB ] Убийца / Sicario [2015 BDRip 1080p HEVC ] Мичман37 Скачать
    1 | 0
    Фильмы [HD 720p, 1080p] (Хороший звук DUB, MVO) [ 12.44 GB ] Убийца 2. Против всех / Sicario 2: Soldado [2018 BDRip 1080p] + MVO [HDRezka Studio] + AVO [Д. Есарев] sheker187 Скачать
    4 | 0
    Фильмы [HD 720p, 1080p] (Хороший звук DUB, MVO) [ 2.72 GB ] Убийца 2. Против всех / Sicario: Day of the Soldado [2018 BDRip 1080p HEVC ()] Мичман37 Скачать
    1 | 0
    Фильмы 2018 [DVDrip, WEB-DLRip, HDrip] (DUB, MVO) [ 1.46 GB ] Убийца 2. Против всех / Sicario 2: Soldado [2018 BDRip] - Twi7ter Скачать
    4 | 0
    Фильмы [HD 720p, 1080p] (Хороший звук DUB, MVO) [ 5.11 GB ] Убийца 2. Против всех / Sicario 2: Soldado [2018 BDRip-HEVC 1080p ] bober100 Скачать
    1 | 0
    Фильмы 2018 [DVDrip, WEB-DLRip, HDrip] (DUB, MVO) [ 3.21 GB ] Убийца 2. Против всех / Sicario 2: Soldado [2018 BDRip-AVC] 2xAVO [Есарев BadBajo] +MVO [HDRezka Studio] + bober100 Скачать
    1 | 0

    28-11-2019 20:33  

    Отключить всю рекламу на сайте

      Дорогой пользователь! Огромная просьба, поблагодарите релизера, оцените раздачу и оставьте свои комментарий, если Вы скачали Убийца через торрент бесплатно! Внесите свою лепту в развитие PiratBit!
      Комментировать посты могут только пользователи прошедшие не сложную регистрацию
      Показать сообщения:    

      Убийца через торрент
      Скачать бесплатно Убийца
      Убийца скачать торрент
      Убийца смотреть онлайн
      Cкачать фильм Убийца бесплатно
      Убийца скачать торрент в хорошем качестве
      Убийца смотреть онлайн бесплатно в хорошем качестве


      Вы не можете начинать темы
      Вы не можете отвечать на сообщения
      Вы не можете редактировать свои сообщения
      Вы не можете удалять свои сообщения
      Вы не можете голосовать в опросах
      Вы не можете прикреплять файлы к сообщениям
      Вы можете скачивать файлы