Ссылка на приватное зеркало нашего сайта всего за 1$. Внимание количество ограничено!!!

2 сезон

iTunes

1 сезон

1

2 сезон

2 сезон

iTunes

1 сезон

RePack

30

Ultimate

ВАЖНО

ИГРА 18+

pack

RePack

MK11
pack

Забери бонус

RePack

jed

!!Акция!!

Alien_Rage

RePack

fifa19

RePack

Assassins Creed: Odyssey

RePack

NEED FOR SPEED™ PAYBACK

4 сезон

9 сезон

Бесстыжие 9 сезон

Все сериалы

все сериалы на PB.wtf

RePack

FAR CRY 5
  

Хорошую женщину найти тяжело / A Good Woman Is Hard to Find (Эбнер Пастолл) [2019, Триллер, криминал, HDRip-AVC] [MVO] [Синема Ус ] от MediaBit piratbit.pw

Хорошую женщину найти тяжело через торрент piratbit.pw

Раздают: 6 [ 2 KB/s ]
Размер: 1.46 GB | Добавлен: 1 мес. 27 д. назад | Торрент скачан:186 раз
Скачать  

02-10-2020 18:12 Хорошую женщину найти тяжело Скачать торрент  


Хорошую женщину найти тяжело / A Good Woman Is Hard to Find
Информация о фильме:
Название: Хорошую женщину найти тяжело
Оригинальное название: A Good Woman Is Hard to Find
Год выхода: 2019
Жанр: Триллер, криминал
Режиссер: Эбнер Пастолл
В ролях: Сара Болджер, Эдвард Хогг, Эндрю Симпсон, Джейн Бреннан, Каолан Бирн, Пакки Ли, Руди Доэрти, Мэйси МакКоли, Сьюзэн Атех, Шиван Келли

Описание: Сара - недавно овдовевшая мать двоих детей. Её сын Бен стал немым, после того как на его глазах убили отца. Полиция не сделала ничего, чтобы поймать убийцу. И тут в жизнь Сары буквально врывается Тито. Он скрывается от наркодилеров и решает спрятать украденные наркотики в её квартире...

rating

Страна: Великобритания, Бельгия, Ирландия
Студия: February Films, Frakas Productions
Продолжительность: 01:36:57
Перевод: Любительский (многоголосый, закадровый) - Синема Ус



Информация о файле:
Кодек: AVC
Формат: MKV
Качество: HDRip-AVC
Видео: MPEG-4 AVC, 1024x428 (2.40:1), 24.000 fps, 1960 kbps, 0.186
Аудио RU: AC3, 2 ch, 48 kHz, 192 kbps

x264 info: frame I:1054 Avg QP:13.92 size: 67059
x264 info: frame P:27723 Avg QP:17.00 size: 23254
x264 info: frame B:110806 Avg QP:18.69 size: 6406
x264 info: consecutive B-frames: 1.7% 2.1% 5.8% 11.9% 14.6% 49.0% 8.4% 1.3% 2.0% 1.0% 1.0% 1.2%
=====================================
General
Unique ID : 115189474257217516284851091339154174513 (0x56A8AF8EF3A265CCC47242119C223231)
Complete name : D:uTorrentРипы_от_wolf1245_MediaBitA Good Woman Is Hard to Find (2019) from wolf1245 & MediaBit.mkv
Format : Matroska
Format version : Version 4
File size : 1.46 GiB
Duration : 1 h 36 min
Overall bit rate : 2 154 kb/s
Movie name : A Good Woman Is Hard to Find (2019) from wolf1245 & MediaBit
Encoded date : UTC 2020-10-02 17:59:33
Writing application : mkvmerge v50.0.0 ('Awakenings') 64-bit
Writing library : libebml v1.4.0 + libmatroska v1.6.2
Attachments : Хорошую женщину найти тяжело2019
Video
ID : 1
Format : AVC
Format/Info : Advanced Video Codec
Format profile : High@L4.1
Format settings : CABAC / 11 Ref Frames
Format settings, CABAC : Yes
Format settings, Reference frames : 11 frames
Codec ID : V_MPEG4/ISO/AVC
Duration : 1 h 36 min
Bit rate : 1 960 kb/s
Width : 1 024 pixels
Height : 428 pixels
Display aspect ratio : 2.40:1
Frame rate mode : Constant
Frame rate : 24.000 FPS
Color space : YUV
Chroma subsampling : 4:2:0
Bit depth : 8 bits
Scan type : Progressive
Bits/(Pixel*Frame) : 0.186
Stream size : 1.33 GiB (91%)
Title : wolf1245 & MediaBit
Writing library : x264 core 157 r2958 57baac4
Encoding settings : cabac=1 / ref=11 / deblock=1:-3:-3 / analyse=0x3:0x133 / me=umh / subme=11 / psy=1 / psy_rd=1.02:0.08 / mixed_ref=1 / me_range=48 / chroma_me=1 / trellis=2 / 8x8dct=1 / cqm=0 / deadzone=21,11 / fast_pskip=0 / chroma_qp_offset=-3 / threads=10 / lookahead_threads=2 / sliced_threads=0 / nr=0 / decimate=0 / interlaced=0 / bluray_compat=0 / constrained_intra=0 / bframes=11 / b_pyramid=2 / b_adapt=2 / b_bias=0 / direct=3 / weightb=1 / open_gop=0 / weightp=2 / keyint=240 / keyint_min=24 / scenecut=40 / intra_refresh=0 / rc_lookahead=50 / rc=2pass / mbtree=0 / bitrate=1960 / ratetol=1.0 / qcomp=0.60 / qpmin=0 / qpmax=69 / qpstep=4 / cplxblur=20.0 / qblur=0.5 / vbv_maxrate=50000 / vbv_bufsize=62500 / nal_hrd=none / filler=0 / ip_ratio=1.40 / pb_ratio=1.30 / aq=2:1.00
Language : English
Default : Yes
Forced : No
Color range : Limited
Color primaries : BT.709
Transfer characteristics : BT.709
Matrix coefficients : BT.709
Audio
ID : 2
Format : AC-3
Format/Info : Audio Coding 3
Commercial name : Dolby Digital
Codec ID : A_AC3
Duration : 1 h 36 min
Bit rate mode : Constant
Bit rate : 192 kb/s
Channel(s) : 2 channels
Channel layout : L R
Sampling rate : 48.0 kHz
Frame rate : 31.250 FPS (1536 SPF)
Compression mode : Lossy
Stream size : 133 MiB (9%)
Title : MVO [Синема УС] MediaBit
Language : Russian
Service kind : Complete Main
Default : Yes
Forced : No
Релиз от: & &
piratbit.pw



Скачать Хорошую женщину найти тяжело через торрент https://c.radikal.ru/c17/2010/24/3a5dfae7f0c8.jpg Скачать фильм Хорошую женщину найти тяжело через торрент бесплантно в хорошем качестве Описание: Сара - недавно овдовевшая мать двоих детей. Её сын Бен стал немым, после того как на его глазах убили отца. Полиция не сделала ... 9.9 10 7
Торрент: Зарегистрирован [2020-10-02 18:12] · скачан: 186 раз
Статус: T временная
Размер: 1.46 GB
Как cкачать? Как скачать Хорошую женщину найти тяжело через торрент | qTorrent

% Раздел Тема Автор DL S | L
T Фильмы 2019-2020 [DVDrip, WEB-DLRip, HDrip] (DUB, MVO) [ 750 MB ] Хорошую женщину найти тяжело / A Good Woman Is Hard to Find [2019 HDRip-AVC] [MVO] [Синема Ус ] от MediaBit Lithuania Скачать
1 | 0

28-11-2019 20:33  

Отключить всю рекламу на сайте

12-10-2020 17:37 Хорошую женщину найти тяжело Скачать торрент  

афигенский фильм! вроде и снят за 5 рублей, а смотрится с большим интересом.piratbit.pw



    Дорогой пользователь! Огромная просьба, поблагодарите релизера, оцените раздачу и оставьте свои комментарий, если Вы скачали Хорошую женщину найти тяжело через торрент бесплатно! Внесите свою лепту в развитие PiratBit!
    Комментировать посты могут только пользователи прошедшие не сложную регистрацию
    Показать сообщения:    

    Хорошую женщину найти тяжело через торрент
    Скачать бесплатно Хорошую женщину найти тяжело
    Хорошую женщину найти тяжело скачать торрент
    Хорошую женщину найти тяжело смотреть онлайн
    Cкачать фильм Хорошую женщину найти тяжело бесплатно
    Хорошую женщину найти тяжело скачать торрент в хорошем качестве
    Хорошую женщину найти тяжело смотреть онлайн бесплатно в хорошем качестве


    Вы не можете начинать темы
    Вы не можете отвечать на сообщения
    Вы не можете редактировать свои сообщения
    Вы не можете удалять свои сообщения
    Вы не можете голосовать в опросах
    Вы не можете прикреплять файлы к сообщениям
    Вы можете скачивать файлы