2 сезон

iTunes

WEBRip

1

2 сезон

iTunes

1 сезон

1 сезон

RePack

30

Ultimate

ВАЖНО

ИГРА 18+

pack

RePack

MK11
pack

Легкие деньги

RePack

jed

RePack

fifa19

RePack

RDR2

RePack

NEED FOR SPEED™ PAYBACK

4 сезон

9 сезон

Бесстыжие 9 сезон

Все сериалы

все сериалы на PB.wtf

RePack

FAR CRY 5

Anonymous, добрый день, мы не успеваем собрать деньги на оплату серверов за февраль, помогите нам пожалуйста в это трудное время. В качестве благодарности мы отключим Вам всю рекламу на сайте (укажите свой ник в строку Ваше имя)!

×
  
Magnet ссылка

Красотка в ударе (Яна Гладких) [2020, Комедия, WEB-DLRip-AVC] [iTunes] piratbit.pw

Красотка в ударе через торрент piratbit.pw

Размер: 1.45 GB | Добавлен: 4 мес. 25 д. назад | Торрент скачан:302 раза
Скачать  

02-10-2020 07:52 Красотка в ударе Скачать торрент  

Красотка в ударе
Год выпуска: 2020
Страна: Россия
Студия: OKKO Studios, Марс Медиа Энтертейнмент
Жанр: Комедия
Продолжительность: 01:40:25
Перевод: Не требуется | iTunes
Субтитры: отсутствуют

Режиссер: Яна Гладких

rating

В ролях: Юлия Александрова, Лариса Кокоева, Максим Блинов, Андрей Бурковский, Григорий Калинин, Павел Ворожцов, Яна Кошкина, Елена Шевченко, Янина Студилина, Таисия Вилкова

Описание: Полина - обычная девушка: заурядная внешность, проблемы дома и на работе, встречи с одноклассниками по случаю... Но однажды она понимает, что проснулась настоящей красоткой, и теперь перед ней открыты все двери! Или ей это только кажется?.

Качество: WEB-DLRip-AVC
Формат: MKV

Видео: 1024x552 (1.85:1), 24 fps, MPEG-4 AVC, 1694 Кbps avg, 0.125 bit/pixel
Аудио: AC3, 48 kHz, 6 ch, ~384.00 kbps avg | русский | iTunes
скриншот  скриншот  скриншот  скриншот  скриншот  

Общее
Уникальный идентификатор : 152787286004078334008183004065574950913 (0x72F1C2CBE52025FA3CE8254C3EEC1801)
Полное имя : Krasotka.v.Udare.2020.WEB-DLRip.1.46Gb.x264.mkv
Формат : Matroska
Версия формата : Version 4
Размер файла : 1, 45 Гбайт
Продолжительность : 1 ч. 40 м.
Общий поток : 2 073 Кбит/сек
Название фильма : Красотка в ударе (2020)
Дата кодирования : UTC 2020-10-02 07:29:21
Программа кодирования : mkvmerge v47.0.0 ('Black Flag') 64-bit
Библиотека кодирования : libebml v1.3.10 + libmatroska v1.5.2
Обложка : Yes
Attachments : cover.jpg

Видео
Идентификатор : 1
Формат : AVC
Формат/Информация : Advanced Video Codec
Профиль формата : High@L4.1
Настройки формата : CABAC / 10 Ref Frames
Параметр CABAC формата : Да
Параметр RefFrames формата : 10 кадров
Идентификатор кодека : V_MPEG4/ISO/AVC
Продолжительность : 1 ч. 40 м.
Битрейт : 1 694 Кбит/сек
Ширина : 1 024 пикселя
Высота : 552 пикселя
Соотношение сторон : 1, 85:1
Режим частоты кадров : Постоянный
Частота кадров : 24, 000 кадра/сек
Цветовое пространство : YUV
Субдискретизация насыщенности : 4:2:0
Битовая глубина : 8 бит
Тип развёртки : Прогрессивная
Бит/(Пиксели*Кадры) : 0.125
Размер потока : 1, 18 Гбайт (81%)
Заголовок : #stillet
Библиотека кодирования : x264 core 152 r2851bm ba24899
Настройки программы : cabac=1 / ref=10 / deblock=1:-2:-2 / analyse=0x3:0x113 / me=umh / subme=10 / psy=1 / psy_rd=1.00:0.15 / mixed_ref=1 / me_range=32 / chroma_me=1 / trellis=2 / 8x8dct=1 / cqm=0 / deadzone=21, 11 / fast_pskip=0 / chroma_qp_offset=-3 / threads=8 / lookahead_threads=3 / sliced_threads=0 / nr=0 / decimate=0 / interlaced=0 / bluray_compat=0 / constrained_intra=0 / bframes=12 / b_pyramid=2 / b_adapt=2 / b_bias=0 / direct=3 / weightb=1 / open_gop=0 / weightp=2 / keyint=240 / keyint_min=24 / scenecut=40 / intra_refresh=0 / rc=2pass / mbtree=0 / bitrate=1694 / ratetol=1.0 / qcomp=0.60 / qpmin=0 / qpmax=69 / qpstep=4 / cplxblur=20.0 / qblur=0.5 / ip_ratio=1.40 / pb_ratio=1.30 / aq=1:1.00
Язык : English
Default : Да
Forced : Нет

Аудио
Идентификатор : 2
Формат : AC-3
Формат/Информация : Audio Coding 3
Коммерческое название : Dolby Digital
Идентификатор кодека : A_AC3
Продолжительность : 1 ч. 40 м.
Вид битрейта : Постоянный
Битрейт : 384 Кбит/сек
Каналы : 6 каналов
Channel layout : L R C LFE Ls Rs
Частота : 48, 0 КГц
Частота кадров : 31, 250 кадров/сек (1536 SPF)
Метод сжатия : С потерями
Размер потока : 276 Мбайт (19%)
Заголовок : iTunes
Язык : Russian
Service kind : Complete Main
Default : Да
Forced : Нет

Меню
00:00:00.000 : en:Глава 1
00:06:47.666 : en:Глава 2
00:12:41.832 : en:Глава 3
00:20:03.582 : en:Глава 4
00:27:26.332 : en:Глава 5
00:34:31.040 : en:Глава 6
00:40:52.290 : en:Глава 7
00:47:58.665 : en:Глава 8
00:55:05.290 : en:Глава 9
01:02:12.915 : en:Глава 10
01:07:03.165 : en:Глава 11
01:13:52.165 : en:Глава 12
01:20:24.998 : en:Глава 13
01:25:02.998 : en:Глава 14
01:30:32.289 : en:Глава 15

piratbit.pw



Скачать Красотка в ударе через торрент https://i111.fastpic.ru/big/2020/1002/b9/cee61c8bc521e4a04a95b61ee6adfcb9.jpg Скачать фильм Красотка в ударе через торрент бесплантно в хорошем качестве Описание: Полина - обычная девушка: заурядная внешность, проблемы дома и на работе, встречи с одноклассниками по случаю... Но однажды она ... 10 10 7
Торрент: Зарегистрирован [2020-10-02 07:52] · скачан: 302 раз
Статус: √ проверено
Размер: 1.45 GB
Как cкачать? Как скачать Красотка в ударе через торрент | UTorrent

% Раздел Тема Автор DL S | L
Наши новые фильмы 2020 - 2021 [ 1.46 GB ] Красотка в ударе [2020 WEB-DLRip] bober100 Скачать
3 | 0
Наши фильмы (HD, WEB-DL 720p, 1080p) [ 3.7 GB ] Красотка в ударе [2020 WEB-DL 1080p] - ExKinoRay Enigma2010 Скачать
71 | 14

28-11-2019 20:33  

Отключить всю рекламу на сайте

    Дорогой пользователь! Огромная просьба, поблагодарите релизера, оцените раздачу и оставьте свои комментарий, если Вы скачали Красотка в ударе через торрент бесплатно! Внесите свою лепту в развитие PiratBit!
    Комментировать посты могут только пользователи прошедшие не сложную регистрацию
    Показать сообщения:    

    Красотка в ударе через торрент
    Скачать бесплатно Красотка в ударе
    Красотка в ударе скачать торрент
    Красотка в ударе смотреть онлайн
    Cкачать фильм Красотка в ударе бесплатно
    Красотка в ударе скачать торрент в хорошем качестве
    Красотка в ударе смотреть онлайн бесплатно в хорошем качестве


    Вы не можете начинать темы
    Вы не можете отвечать на сообщения
    Вы не можете редактировать свои сообщения
    Вы не можете удалять свои сообщения
    Вы не можете голосовать в опросах
    Вы не можете прикреплять файлы к сообщениям
    Вы можете скачивать файлы